Remember Me
A password will be e-mailed to you.
Please enter your username or email address. You will receive a link to create a new password via email.
Cancel
PerfectHDMovies.me

Zorawar (2016) Panjabi 720p DTH Rip Team PHDM – 1.47 GB

Zorawar    

N/A 151 min PunjabiSouth

5.3
IMDB: 5.3/10 180 votes

, , ,

N/A

South Africa, India

Report error

Zorawar (2016) Panjabi 720p DTH Rip Team PHDM - 1.47 GB

Zorawar (2016) Panjabi 720p DTH Rip Team PHDM – 1.47 GB

Format : Matroska 
Format version : Version 4 / Version 2 
File size : 1.47 GiB 
Duration : 2h 17mn 
Overall bit rate : 1 527 Kbps 
Movie name : Team PHDM 
Encoded date : UTC 2016-11-25 02:12:48 
Writing application : mkvmerge v9.4.2 ('So High') 64bit 
Writing library : libebml v1.3.4 + libmatroska v1.4.5 


Video 
ID : 1 
Format : AVC 
Format/Info : Advanced Video Codec 
Format profile : [email protected] 
Format settings, CABAC : Yes 
Format settings, ReFrames : 4 frames 
Codec ID : V_MPEG4/ISO/AVC 
Duration : 2h 17mn 
Bit rate : 1 404 Kbps 
Width : 1 280 pixels 
Height : 544 pixels 
Display aspect ratio : 2.35:1 
Frame rate mode : Constant 
Frame rate : 25.000 fps 
Color space : YUV 
Chroma subsampling : 4:2:0 
Bit depth : 8 bits 
Scan type : Progressive 
Bits/(Pixel*Frame) : 0.081 
Stream size : 1.32 GiB (90%) 
Title : Team PHDM 
Writing library : x264 core 148 r2638 7599210 
Default : Yes 
Forced : No 

Audio 
ID : 2 
Format : AC-3 
Format/Info : Audio Coding 3 
Mode extension : CM (complete main) 
Format settings, Endianness : Big 
Codec ID : A_AC3 
Duration : 2h 17mn 
Bit rate mode : Constant 
Bit rate : 128 Kbps 
Channel(s) : 2 channels 
Channel positions : Front: L R 
Sampling rate : 48.0 KHz 
Compression mode : Lossy 
Stream size : 126 MiB (8%) 
Title : Team PHDM 
Default : Yes 
Forced : No 


Zorawar (2016) Panjabi 720p DTH Rip Team PHDM - 1.47 GBZorawar (2016) Panjabi 720p DTH Rip Team PHDM - 1.47 GB

wo

*
*
FLASHSX
*
LETWATCH
dl
 
No links available
No downloads available

Genres

Related movies

Watch Dragon ball super