Remember Me
A password will be e-mailed to you.
Please enter your username or email address. You will receive a link to create a new password via email.
Cancel
PerfectHDMovies.me

Zootopia 2016 HDCAM XVID AC3 HQ Hive-CM8 1.4 GB

Zootopia    

PG 108 min HollywoodHollywood Pre-Releases (Latest)

8.1
IMDB: 8.1/10 3,192 votes

, ,

, , ,

N/A

USA

Report error

Thx Hive

CM8 Doing It Right The First Time

Sources:

Video: 720P New HDCAM Latino thx

Audio: Nice Mic from UnKnOwN thx

Encode:

Latino Video was complete and nice, fixed ar,brightness,contrast,rgb,and saturation

Dont have line for this movie, and doesnt look like theire is anyone coming next 3 weeks
Not every movie can be a top 1 candidate,
so i took the mic from the UnKnOwN release and lipsynced it to my video
The Mic was ok you can understand all thats been said, occassional kids laughing are in it, no biggy its a cam
check sample

most likely next will be a web-dl in 3 weeks so this will have to do till than.

and yes last 10mins are perfect to see, its not a redo of the old cam

enjoy

Video: 720×304 @bitrate 1800 2pass
Audio: Mic AC3 2.0 Stereo
Sample: yes included

http://www.imdb.com/title/tt2948356/

General
Complete name                  : Zootopia.2016.HDCAM.XVID.AC3.HQ.Hive-CM8.avi
Format                         : AVI
Format/Info                    : Audio Video Interleave
File size                      : 1.41 GiB
Duration                       : 1h 38mn
Overall bit rate               : 2 063 Kbps
Writing application            : Nandub v1.0rc2
Writing library                : Nandub build 1853/release

Video
ID                             : 0
Format                         : MPEG-4 Visual
Format profile                 : Advanced [email protected]
Format settings, BVOP          : 2
Format settings, QPel          : Yes
Format settings, GMC           : No warppoints
Format settings, Matrix        : Default (H.263)
Muxing mode                    : Packed bitstream
Codec ID                       : XVID
Codec ID/Hint                  : XviD
Duration                       : 1h 38mn
Bit rate                       : 1 800 Kbps
Width                          : 720 pixels
Height                         : 304 pixels
Display aspect ratio           : 2.35:1
Frame rate                     : 29.970 fps
Color space                    : YUV
Chroma subsampling             : 4:2:0
Bit depth                      : 8 bits
Scan type                      : Progressive
Compression mode               : Lossy
Bits/(Pixel*Frame)             : 0.274
Stream size                    : 1.23 GiB (87%)
Writing library                : XviD 1.2.1 (UTC 2008-12-04)

Audio
ID                             : 1
Format                         : AC-3
Format/Info                    : Audio Coding 3
Mode extension                 : CM (complete main)
Format settings, Endianness    : Big
Codec ID                       : 2000
Duration                       : 1h 36mn
Bit rate mode                  : Constant
Bit rate                       : 256 Kbps
Channel(s)                     : 2 channels
Channel positions              : Front: L R
Sampling rate                  : 48.0 KHz
Bit depth                      : 16 bits
Compression mode               : Lossy
Stream size                    : 177 MiB (12%)
Alignment                      : Split accross interleaves
Interleave, duration           : 34 ms (1.02 video frame)
Interleave, preload duration   : 500 ms

Screens

*
*
*
*
*
No links available
No downloads available

Genres

Related movies

Watch Dragon ball super