Remember Me
A password will be e-mailed to you.
Please enter your username or email address. You will receive a link to create a new password via email.
Cancel
PerfectHDMovies.me

Zathura A Space Adventure (2005) BDRip 720p x264 – [Hindi 2.0 + English 2.0] 775.58 MB

Zathura: A Space Adventure    

PG 101 min Dual AudioDual Audio Blu-Ray 720p

6.1
IMDB: 6.1/10 67,757 votes

, , ,

2 wins & 3 nominations.

USA

Report error

Zathura A Space Adventure (2005) BDRip 720p x264 - [Hindi 2.0 + English 2.0]

Zathura A Space Adventure (2005) BDRip 720p x264 – [Hindi 2.0 + English 2.0]

Video
ID : 1
Format : AVC
Duration : 1h 41mn
Bit rate : 940 Kbps
Width : 1 280 pixels
Height : 688 pixels
Stream size : 681 MiB (88%)
Audio #1
ID : 2
Format : AC-3
Compression mode : Lossy
Delay relative to video : 2s 0ms
Stream size : 46.4 MiB (6%)
Language : Hindi

Audio #2
ID : 3
Format : AC-3
Bit rate mode : Constant
Bit rate : 64.0 Kbps
Channel(s) : 2 channels
Language : English

 

Zathura A Space Adventure (2005) BDRip 720p x264 - [Hindi 2.0 + English 2.0]Zathura A Space Adventure (2005) BDRip 720p x264 - [Hindi 2.0 + English 2.0]Zathura A Space Adventure (2005) BDRip 720p x264 - [Hindi 2.0 + English 2.0]


*
*
*
*
*
*
*
GO4UP 
No links available
No downloads available

Genres

Related movies

Watch Dragon ball super