Remember Me
A password will be e-mailed to you.
Please enter your username or email address. You will receive a link to create a new password via email.
Cancel
PerfectHDMovies.me

X-Men Origins : Wolverine (2009) + Extras 1080p BluRay x264 Dual Audio [English 5.1 + Hindi 5.1] – TBI 2.2Gb

PG-13 Dual AudioDual Audio Blu-Ray 1080p

6.7
IMDB: 6.7/10 votes

, ,

3 wins & 13 nominations

USA

Report error

X-Men Origins : Wolverine (2009) + Extras 1080p BluRay x264 Dual Audio [English 5.1 + Hindi 5.1] - TBI

X-Men Origins : Wolverine (2009) + Extras 1080p BluRay x264 Dual Audio [English 5.1 + Hindi 5.1] – TBI 2.2Gb

Name: X-Men Origins: Wolverine (2009)
Genre: Action, Adventure, Sci-Fi
IMDB Link: http://www.imdb.com/title/tt0458525/
Director: Gavin Hood
Writers: David Benioff (screenplay), Skip Woods (screenplay)
Cast: Hugh Jackman, Liev Schreiber, Ryan Reynolds
Plot: A look at Wolverine's early life, in particular his time with the government squad
Team X and the impact it will have on his later years.

Release Name: X-Men Origins: Wolverine (2009)
Size: 2.17 GiB
Video: AVC | 1920 x 816 | 2000 Kbps | 23.976 FPS | 2:35:1
Audio 1: English | 448 Kbps | 6ch | AC3
Audio 2: Hindi | 448 Kbps | 6ch | AC3
Runtime: 01h 47mn 21secs
Subtitle: English
Source: BluRay-HDC

General
Complete name : X-Men Origins: Wolverine (2009).mp4
Format : MPEG-4
Format profile : Base Media
Codec ID : isom
File size : 2.17 GiB
Duration : 1h 47mn
Overall bit rate : 2 898 Kbps

Video
ID : 1
Format : AVC
Format/Info : Advanced Video Codec
Format profile : [email protected]
Format settings, CABAC : Yes
Format settings, ReFrames : 4 frames
Codec ID : avc1
Codec ID/Info : Advanced Video Coding
Duration : 1h 47mn
Bit rate : 2 000 Kbps
Maximum bit rate : 24.0 Mbps
Width : 1 920 pixels
Height : 816 pixels
Display aspect ratio : 2.35:1
Frame rate mode : Constant
Frame rate : 23.976 fps
Color space : YUV
Chroma subsampling : 4:2:0
Bit depth : 8 bits
Scan type : Progressive
Bits/(Pixel*Frame) : 0.053
Stream size : 1.50 GiB (69%)
Writing library : x264 core 130 r2273 b3065e6
Color primaries : BT.709
Transfer characteristics : BT.709
Matrix coefficients : BT.709

Audio #1
ID : 2
Format : AC-3
Format/Info : Audio Coding 3
Mode extension : CM (complete main)
Format settings, Endianness : Big
Codec ID : ac-3
Duration : 1h 47mn
Bit rate mode : Constant
Bit rate : 448 Kbps
Maximum bit rate : 473 Kbps
Channel(s) : 6 channels
Channel positions : Front: L C R, Side: L R, LFE
Sampling rate : 48.0 KHz
Bit depth : 16 bits
Compression mode : Lossy
Stream size : 344 MiB (15%)
Language : English

Audio #2
ID : 3
Format : AC-3
Format/Info : Audio Coding 3
Mode extension : CM (complete main)
Format settings, Endianness : Big
Codec ID : ac-3
Duration : 1h 47mn
Bit rate mode : Constant
Bit rate : 448 Kbps
Maximum bit rate : 473 Kbps
Channel(s) : 6 channels
Channel positions : Front: L C R, Side: L R, LFE
Sampling rate : 48.0 KHz
Bit depth : 16 bits
Compression mode : Lossy
Stream size : 344 MiB (15%)
Language : Hindi

 

 

 

 

 

 

No links available
No downloads available

Genres

Related movies

Watch Dragon ball super