Remember Me
A password will be e-mailed to you.
Please enter your username or email address. You will receive a link to create a new password via email.
Cancel
PerfectHDMovies.me

X-Men Days Of Future Past (2014) 1080p x264 En-Hi-Ta-Te-Ur AC3 5.1 Subs -DDR 3.82 GiB

X-Men: Days of Future Past    

PG-13 132 min Dual AudioDual Audio Blu-Ray 1080p

8.0
IMDB: 8.0/10 514,203 votes

, , ,

Nominated for 1 Oscar. Another 15 wins & 40 nominations.

USA, UK, Canada

Report error

X-Men Days Of Future Past (2014) 1080p x264 En-Hi-Ta-Te-Ur AC3 5.1 Subs -DDR

X-Men Days Of Future Past (2014) 1080p x264 En-Hi-Ta-Te-Ur AC3 5.1 Subs -DDR

Specs:
Source: BD50

Format : Matroska
File size : 3.82 GiB
Duration : 2h 11mn
Overall bit rate : 4 152 Kbps


Video
Format : AVC
Format/Info : Advanced Video Codec
Format profile : [email protected]
Format settings, CABAC : Yes
Format settings, ReFrames : 5 frames
Codec ID : V_MPEG4/ISO/AVC
Duration : 2h 11mn
Bit rate : 2 158 Kbps
Width : 1 920 pixels
Height : 800 pixels
Display aspect ratio : 2.40:1
Frame rate mode : Constant
Frame rate : 23.976 (24000/1001) fps
Color space : YUV
Chroma subsampling : 4:2:0
Bit depth : 8 bits
Scan type : Progressive
Bits/(Pixel*Frame) : 0.059
Stream size : 1.98 GiB (52%)

Audio #1
Format : AAC
Format/Info : Advanced Audio Codec
Format profile : LC
Codec ID : A_AAC
Duration : 2h 11mn
Bit rate : 192 Kbps
Channel(s) : 6 channels
Channel positions : Front: L C R, Side: L R, LFE
Sampling rate : 48.0 KHz
Frame rate : 46.875 fps (1024 spf)
Compression mode : Lossy
Delay relative to video : 9ms
Stream size : 180 MiB (5%)
Language : English
Default : Yes
Forced : No

Audio #2
ID : 3
Format : AC-3
Format/Info : Audio Coding 3
Mode extension : CM (complete main)
Format settings, Endianness : Big
Codec ID : A_AC3
Duration : 2h 11mn
Bit rate mode : Constant
Bit rate : 448 Kbps
Channel(s) : 6 channels
Channel positions : Front: L C R, Side: L R, LFE
Sampling rate : 48.0 KHz
Frame rate : 31.250 fps (1536 spf)
Compression mode : Lossy
Stream size : 422 MiB (11%)
Language : Hindi
Default : No
Forced : No

Audio #3
ID : 4
Format : AC-3
Format/Info : Audio Coding 3
Mode extension : CM (complete main)
Format settings, Endianness : Big
Codec ID : A_AC3
Duration : 2h 11mn
Bit rate mode : Constant
Bit rate : 448 Kbps
Channel(s) : 6 channels
Channel positions : Front: L C R, Side: L R, LFE
Sampling rate : 48.0 KHz
Frame rate : 31.250 fps (1536 spf)
Compression mode : Lossy
Stream size : 422 MiB (11%)
Language : Tamil
Default : No
Forced : No

Audio #4
ID : 5
Format : AC-3
Format/Info : Audio Coding 3
Mode extension : CM (complete main)
Format settings, Endianness : Big
Codec ID : A_AC3
Duration : 2h 11mn
Bit rate mode : Constant
Bit rate : 448 Kbps
Channel(s) : 6 channels
Channel positions : Front: L C R, Side: L R, LFE
Sampling rate : 48.0 KHz
Frame rate : 31.250 fps (1536 spf)
Compression mode : Lossy
Stream size : 422 MiB (11%)
Language : Telugu
Default : No
Forced : No

Audio #5
ID : 6
Format : AC-3
Format/Info : Audio Coding 3
Mode extension : CM (complete main)
Format settings, Endianness : Big
Codec ID : A_AC3
Duration : 2h 11mn
Bit rate mode : Constant
Bit rate : 448 Kbps
Channel(s) : 6 channels
Channel positions : Front: L C R, Side: L R, LFE
Sampling rate : 48.0 KHz
Frame rate : 31.250 fps (1536 spf)
Compression mode : Lossy
Stream size : 422 MiB (11%)
Language : Urdu
Default : No
Forced : No

 

X-Men Days Of Future Past (2014) 1080p x264 En-Hi-Ta-Te-Ur AC3 5.1 Subs -DDR X-Men Days Of Future Past (2014) 1080p x264 En-Hi-Ta-Te-Ur AC3 5.1 Subs -DDR X-Men Days Of Future Past (2014) 1080p x264 En-Hi-Ta-Te-Ur AC3 5.1 Subs -DDR

LETWATACH
*
*
*
*
*
*
*
GO4UP 
 
No links available
No downloads available

Genres

Related movies

Watch Dragon ball super