Remember Me
A password will be e-mailed to you.
Please enter your username or email address. You will receive a link to create a new password via email.
Cancel
PerfectHDMovies.me

Wolf Creek 2 (2013) 720p Blu-Ray x264 [Dual-Audio] [English DD 5.1 + Hindi] – Mafiaking – M2Tv

NO    

NO NO Dual AudioDual Audio Blu-Ray 720p

6.1
IMDB: 6.1/10 NO votes

NO

Report error

Wolf Creek 2 (2013) 720p Blu-Ray x264 [Dual-Audio] [English DD 5.1 + Hindi] - Mafiaking - M2Tv

Wolf Creek 2 (2013) 720p Blu-Ray x264 [Dual-Audio] [English DD 5.1 + Hindi] – Mafiaking – M2Tv

http://www.imdb.com/title/tt2004432/
Ratings: 6.1/10
GENRE: Horror, Thriller
General
Format : Matroska
Format version : Version 4 / Version 2
File size : 971 MiB
Duration : 1h 46mn
Overall bit rate : 1 278 Kbps

Video
ID : 1
Format : AVC
Format/Info : Advanced Video Codec
Format profile : [email protected]
Format settings, CABAC : Yes
Format settings, ReFrames : 4 frames
Codec ID : V_MPEG4/ISO/AVC
Duration : 1h 46mn
Bit rate : 925 Kbps
Width : 1 280 pixels
Height : 542 pixels
Display aspect ratio : 2.35:1
Frame rate mode : Constant
Frame rate : 23.976 fps
Color space : YUV
Chroma subsampling : 4:2:0
Bit depth : 8 bits
Scan type : Progressive
Bits/(Pixel*Frame) : 0.056
Stream size : 685 MiB (70%)
Title : Mafiaking
Language : English
Default : Yes
Forced : No

Audio #1
ID : 2
Format : AC-3
Format/Info : Audio Coding 3
Mode extension : CM (complete main)
Format settings, Endianness : Big
Codec ID : A_AC3
Duration : 1h 46mn
Bit rate mode : Constant
Bit rate : 128 Kbps
Channel(s) : 2 channels
Channel positions : Front: L R
Sampling rate : 48.0 KHz
Bit depth : 16 bits
Compression mode : Lossy
Stream size : 97.3 MiB (10%)
Title : Mafiaking
Language : Hindi
Default : Yes
Forced : No

Audio #2
ID : 3
Format : AC-3
Format/Info : Audio Coding 3
Mode extension : CM (complete main)
Format settings, Endianness : Big
Codec ID : A_AC3
Duration : 1h 46mn
Bit rate mode : Constant
Bit rate : 224 Kbps
Channel(s) : 6 channels
Channel positions : Front: L C R, Side: L R, LFE
Sampling rate : 48.0 KHz
Bit depth : 16 bits
Compression mode : Lossy
Stream size : 170 MiB (18%)
Title : Mafiaking
Language : English
Default : No
Forced : No

Text
ID : 4
Format : UTF-8
Codec ID : S_TEXT/UTF8
Codec ID/Info : UTF-8 Plain Text
Title : Mafiaking
Language : English
Default : Yes
Forced : No
Forced : No
No links available
No downloads available

Genres

Related movies

Watch Dragon ball super