Remember Me
A password will be e-mailed to you.
Please enter your username or email address. You will receive a link to create a new password via email.
Cancel
PerfectHDMovies.me

Wild Things 2 (2004) 720p WEB-DL x264 [Dual Audio] [Hindi DD 2.0 – English] – monu987 1.96 GB

Wild Things 2    

R 95 min Dual AudioDual Audio WEB-DL 720p

4.5
IMDB: 4.5/10 5,297 votes

, , ,

N/A

USA

Report error

Wild Things 2 (2004) 720p WEB-DL x264 [Dual Audio] [Hindi DD 2.0 – English] – monu987
Format : Matroska
Format version : Version 4 / Version 2
File size : 1.93 GiB
Duration : 1h 34mn
Overall bit rate : 2 920 Kbps




Video
ID : 1
Format : AVC
Format/Info : Advanced Video Codec
Format profile : [email protected]
Format settings, CABAC : Yes
Format settings, ReFrames : 5 frames
Codec ID : V_MPEG4/ISO/AVC
Duration : 1h 34mn
Bit rate : 2 503 Kbps
Width : 1 272 pixels
Height : 712 pixels
Display aspect ratio : 16:9
Frame rate mode : Constant
Frame rate : 23.976 fps
Color space : YUV
Chroma subsampling : 4:2:0
Bit depth : 8 bits
Scan type : Progressive
Bits/(Pixel*Frame) : 0.115
Stream size : 1.62 GiB (84%)
Title : monu987
Writing library : x264 core 142 r2431 ac76440
Color range : Limited
Color primaries : Generic film
Transfer characteristics : BT.709
Matrix coefficients : BT.709


Audio #1
ID : 2
Format : AC-3
Format/Info : Audio Coding 3
Format profile : Dolby Digital
Mode extension : CM (complete main)
Format settings, Endianness : Big
Codec ID : A_AC3
Duration : 1h 34mn
Bit rate mode : Constant
Bit rate : 224 Kbps
Channel(s) : 2 channels
Channel positions : Front: L R
Sampling rate : 48.0 KHz
Bit depth : 16 bits
Compression mode : Lossy
Stream size : 152 MiB (8%)
Title : monu987
Language : Hindi
Default : Yes
Forced : Yes


Audio #2
ID : 3
Format : AC-3
Format/Info : Audio Coding 3
Mode extension : CM (complete main)
Format settings, Endianness : Big
Codec ID : A_AC3
Duration : 1h 34mn
Bit rate mode : Constant
Bit rate : 192 Kbps
Channel(s) : 6 channels
Channel positions : Front: L C R, Side: L R, LFE
Sampling rate : 48.0 KHz
Bit depth : 16 bits
Compression mode : Lossy
Stream size : 130 MiB (7%)
Title : monu987
Language : English
Default : No
Forced : No


Special Thanks To Sadhu’s HD For Original Hindi Audio………..
Which Was Perfect Synced & Edited by Me……….


Note: No Watermarks/Tags in Audio & Video ;)…. Enjoy Movie:)



1011868.md.png 0485392.md.png
05bc826.md.png 018fe70.md.png
066df02.md.png 0755df5.md.png
09b9786.md.png 0363539.md.png
02fce55.md.png 089c660.md.png


Special Thanks To – TMX, Invincible,Sadhu’s-HD,Sher-Khan,sbaz44,TBI,DrStar,Dredd,David,Shawn-James, Abu-HamzaRespect To All Teams – HDDR,Gpsoft,IcTv,SDR,HKRG,TEAM warriors,TeamTNT,M2TV,Hon3y,Team-Exd,XMR,TMRG,PerfectHDMovies and other past-present teams

Also Thanks To All Hollywood Hindi Dubbed Movie Lovers For There Appreciation (y

LETWATACH 
*
VODLOCKER

 

No links available
No downloads available

Genres

Related movies

Watch Dragon ball super