Remember Me
A password will be e-mailed to you.
Please enter your username or email address. You will receive a link to create a new password via email.
Cancel
PerfectHDMovies.me

Wild 7 (2011) aka Wairudo 720p BluRay [Dual Audio] [Hindi 2.0 – Japanese] – monu987 [Exclusive] ~ 1.96 GB

Wild 7    

N/A 109 min Dual AudioDual Audio Blu-Ray 720p

5.8
IMDB: 5.8/10 251 votes

, , ,

N/A

Japan

Report error

Wild 7 (2011) aka Wairudo 720p BluRay [Dual Audio] [Hindi 2.0 – Japanese] – monu987
Format : Matroska
Format version : Version 4 / Version 2
File size : 1.93 GiB
Duration : 1h 49mn
Overall bit rate : 2 536 Kbps




Video
ID : 1
Format : AVC
Format/Info : Advanced Video Codec
Format profile : [email protected]
Format settings, CABAC : Yes
Format settings, ReFrames : 5 frames
Codec ID : V_MPEG4/ISO/AVC
Duration : 1h 49mn
Bit rate : 2 150 Kbps
Width : 1 272 pixels
Height : 528 pixels
Display aspect ratio : 2.40:1
Frame rate mode : Constant
Frame rate : 23.976 fps
Color space : YUV
Chroma subsampling : 4:2:0
Bit depth : 8 bits
Scan type : Progressive
Bits/(Pixel*Frame) : 0.134
Stream size : 1.60 GiB (83%)
Title : monu987
Writing library : x264 core 142 r2431 ac76440
Color range : Limited
Color primaries : Generic film
Transfer characteristics : BT.709
Matrix coefficients : BT.709


Audio #1
ID : 2
Format : AC-3
Format/Info : Audio Coding 3
Format profile : Dolby Digital
Mode extension : CM (complete main)
Format settings, Endianness : Big
Codec ID : A_AC3
Duration : 1h 49mn
Bit rate mode : Constant
Bit rate : 192 Kbps
Channel(s) : 2 channels
Channel positions : Front: L R
Sampling rate : 48.0 KHz
Bit depth : 16 bits
Compression mode : Lossy
Stream size : 150 MiB (8%)
Title : monu987
Language : Hindi
Default : Yes
Forced : Yes


Audio #2
ID : 3
Format : AC-3
Format/Info : Audio Coding 3
Mode extension : CM (complete main)
Format settings, Endianness : Big
Codec ID : A_AC3
Duration : 1h 49mn
Bit rate mode : Constant
Bit rate : 192 Kbps
Channel(s) : 6 channels
Channel positions : Front: L C R, Side: L R, LFE
Sampling rate : 48.0 KHz
Bit depth : 16 bits
Compression mode : Lossy
Stream size : 150 MiB (8%)
Title : monu987
Language : Japanese
Default : No
Forced : No



Special Thanks To David Call Bro For Hindi Audio Source
Which Was Perfect Synced by Me…………


Note: No Watermarks/Tags in Audio & Video ;)…. Enjoy Movie:)




0175c4d.md.png 0680cad.md.png
02b9802.md.png 10f7973.md.png
0549a41.md.png 0790e14.md.png
04fc4c1.md.png 03d82d2.md.png
096da75.md.png 08b6fb8.md.png




Special Thanks To – TMX, Invincible,Sadhu’s-HD,Sher-Khan,sbaz44,TBI,DrStar,Dredd,David,Shawn-James, Abu-HamzaRespect To All Teams – HDDR,Gpsoft,IcTv,SDR,HKRG,TEAM warriors,TeamTNT,M2TV,Hon3y,Team-Exd,XMR,TMRG,PerfectHDMovies and other past-present teamsAlso Thanks To All Hollywood Hindi Dubbed Movie Lovers For There Appreciation (y)

*
*
*

 

No links available
No downloads available

Genres

Related movies

Watch Dragon ball super