Remember Me
A password will be e-mailed to you.
Please enter your username or email address. You will receive a link to create a new password via email.
Cancel
PerfectHDMovies.me

Wazir (2016) – 1CD – DVD-Rip – Hindi – x264 – MP3 – Mafiaking – M2Tv

Wazir    

N/A 102 min BollywoodBollywood DVDRip 720p

7.4
IMDB: 7.4/10 5,147 votes

, , ,

N/A

India

Report error

http://movie.geourdu.com/wp-content/uploads/2016/01/Wazir-2016.jpg

 

Wazir (2016) – 1CD – DVD-Rip – Hindi – x264 – MP3 – Mafiaking – M2Tv


Ratings: 7.4/10

Genere: Crime, Drama, Mystery 

General
Unique ID : 199463967177994001512449336872702102209 (0x960F5CDB4FE615C89EBECBBB3A84CAC1)
Complete name : Wazir (2016) - 1CD - DVD-Rip - Hindi - x264 - MP3 - Mafiaking - M2Tv.mkv
Format : Matroska
Format version : Version 4 / Version 2
File size : 707 MiB
Duration : 1h 44mn
Overall bit rate : 949 Kbps
Movie name : Wazir (2016) - 1CD - DVD-Rip - Hindi - x264 - MP3 - Mafiaking - M2Tv
Encoded date : UTC 2016-03-22 20:12:26
Writing application : mkvmerge v7.9.0 ('Birds') 64bit
Writing library : libebml v1.3.1 + libmatroska v1.4.2

Video
ID : 1
Format : AVC
Format/Info : Advanced Video Codec
Format profile : [email protected]
Format settings, CABAC : Yes
Format settings, ReFrames : 4 frames
Codec ID : V_MPEG4/ISO/AVC
Duration : 1h 44mn
Bit rate : 835 Kbps
Width : 640 pixels
Height : 272 pixels
Display aspect ratio : 2.35:1
Frame rate mode : Constant
Frame rate : 29.970 fps
Color space : YUV
Chroma subsampling : 4:2:0
Bit depth : 8 bits
Scan type : Progressive
Bits/(Pixel*Frame) : 0.160
Stream size : 609 MiB (86%)
Title : Mafiaking
Language : Hindi
Default : Yes
Forced : No

Audio
ID : 2
Format : MPEG Audio
Format version : Version 1
Format profile : Layer 3
Mode : Joint stereo
Mode extension : MS Stereo
Codec ID : A_MPEG/L3
Codec ID/Hint : MP3
Duration : 1h 44mn
Bit rate mode : Constant
Bit rate : 112 Kbps
Channel(s) : 2 channels
Sampling rate : 44.1 KHz
Compression mode : Lossy
Stream size : 83.4 MiB (12%)
Title : Mafiaking
Writing library : LAME3.99r
Language : Hindi
Default : Yes
Forced : No



 

http://extraimago.com/images/2016/03/22/12113f.jpghttp://extraimago.com/images/2016/03/22/279028.jpghttp://extraimago.com/images/2016/03/22/3ba150.jpghttp://extraimago.com/images/2016/03/22/4c2ef5.jpghttp://extraimago.com/images/2016/03/22/597f74.jpghttp://extraimago.com/images/2016/03/22/663626.jpghttp://extraimago.com/images/2016/03/22/8.jpghttp://extraimago.com/images/2016/03/22/9.jpg

Sample


 


No links available
No downloads available

Genres

Related movies

Watch Dragon ball super