Remember Me
A password will be e-mailed to you.
Please enter your username or email address. You will receive a link to create a new password via email.
Cancel
PerfectHDMovies.me

Warcraft (2016) 720p WEB-DL x264 [Dual-Audio][English 2.0 + Hindi 2.0 Line Audio)] – Mafiaking – M2Tv 1.1 Gb

Warcraft    

PG-13 123 min Dual AudioDual Audio WEB-DL 720p

7.4
IMDB: 7.4/10 104,144 votes

, , ,

N/A

USA, China, Canada, Japan

Report error

Warcraft (2016) 720p WEB-DL x264 [Dual-Audio][English 2.0 + Hindi 2.0 Line Audio)] - Mafiaking - M2Tv

Warcraft (2016) 720p WEB-DL x264 [Dual-Audio][English 2.0 + Hindi 2.0 Line Audio)] – Mafiaking – M2Tv

Genere: Action, Adventure, Fantasy

General
Unique ID : 247400692695190130841754842186878049629 (0xBA1FA3E644F2BB5294CC42A0851C5D5D)
Complete name : Warcraft (2016) 720p WEB-DL x264 [Dual-Audio][English 2.0 + Hindi 2.0 Line Audio)] - Mafiaking - M2Tv.mkv
Format : Matroska
Format version : Version 4 / Version 2
File size : 1.12 GiB
Duration : 1 h 58 min
Overall bit rate : 1 357 kb/s
Movie name : Warcraft (2016) 720p WEB-DL x264 [Dual-Audio][English 2.0 + Hindi 2.0 Line Audio)] - Mafiaking - M2Tv
Encoded date : UTC 2016-08-08 16:30:28
Writing application : mkvmerge v7.0.0 ('Where We Going') 32bit built on Jun 9 2014 15:08:34
Writing library : libebml v1.3.0 + libmatroska v1.4.1

Video
ID : 1
Format : AVC
Format/Info : Advanced Video Codec
Format profile : [email protected]
Format settings, CABAC : Yes
Format settings, ReFrames : 3 frames
Codec ID : V_MPEG4/ISO/AVC
Duration : 1 h 58 min
Bit rate : 950 kb/s
Width : 1 280 pixels
Height : 528 pixels
Display aspect ratio : 2.40:1
Frame rate mode : Constant
Frame rate : 25.000 FPS
Color space : YUV
Chroma subsampling : 4:2:0
Bit depth : 8 bits
Scan type : Progressive
Bits/(Pixel*Frame) : 0.056
Stream size : 836 MiB (73%)
Title : Mafiaking
Language : English
Default : Yes
Forced : No

Audio #1
ID : 2
Format : AC-3
Format/Info : Audio Coding 3
Mode extension : CM (complete main)
Format settings, Endianness : Big
Codec ID : A_AC3
Duration : 1 h 49 min
Bit rate mode : Constant
Bit rate : 256 kb/s
Channel(s) : 2 channels
Channel positions : Front: L R
Sampling rate : 44.1 kHz
Compression mode : Lossy
Stream size : 201 MiB (18%)
Title : Mafiaking
Language : Hindi
Default : Yes
Forced : No

Audio #2
ID : 3
Format : AC-3
Format/Info : Audio Coding 3
Mode extension : CM (complete main)
Format settings, Endianness : Big
Codec ID : A_AC3
Duration : 1 h 58 min
Bit rate mode : Constant
Bit rate : 128 kb/s
Channel(s) : 2 channels
Channel positions : Front: L R
Sampling rate : 48.0 kHz
Compression mode : Lossy
Stream size : 108 MiB (9%)
Title : Mafiaking
Language : English
Default : No
Forced : No

 

Warcraft (2016) 720p WEB-DL x264 [Dual-Audio][English 2.0 + Hindi 2.0 Line Audio)] - Mafiaking - M2TvWarcraft (2016) 720p WEB-DL x264 [Dual-Audio][English 2.0 + Hindi 2.0 Line Audio)] - Mafiaking - M2TvWarcraft (2016) 720p WEB-DL x264 [Dual-Audio][English 2.0 + Hindi 2.0 Line Audio)] - Mafiaking - M2Tv

LETWATACH
*
*
*
*
*
*
*
GO4UP 
 
No links available
No downloads available

Genres

Related movies

Watch Dragon ball super