Remember Me
A password will be e-mailed to you.
Please enter your username or email address. You will receive a link to create a new password via email.
Cancel
PerfectHDMovies.me

Warcraft (2016) 720p BluRay x264 [Dual-Audio][English DD 5.1+ Hindi DD 5.1] – Mafiaking – M2Tv 1.18 GiB

Warcraft: The Beginning    

PG-13 123 min Dual AudioDual Audio Blu-Ray 720p

7.2
IMDB: 7.2/10 122,100 votes

, , ,

N/A

China, Canada, Japan, USA

Report error

warcraft-2016

Warcraft (2016) 720p BluRay x264 [Dual-Audio][English DD 5.1+ Hindi DD 5.1] – Mafiaking – M2Tv

Ratings: 7.2/10

Genere: Action, Adventure, Fantasy

General
Unique ID : 254631991136507799797311103992829262766 (0xBF9056706B35A2A89AF79D9DB77F3BAE)
Complete name : Warcraft (2016) 720p BluRay x264 [Dual-Audio][English DD 5.1+ Hindi DD 5.1] - Mafiaking - M2Tv - ExClusive.mkv
Format : Matroska
Format version : Version 4 / Version 2
File size : 1.18 GiB
Duration : 2 h 3 min
Overall bit rate : 1 374 kb/s
Movie name : Warcraft (2016) 720p BluRay x264 [Dual-Audio][English DD 5.1+ Hindi DD 5.1] - Mafiaking - M2Tv - ExClusive
Encoded date : UTC 2016-09-10 12:28:54
Writing application : mkvmerge v7.0.0 ('Where We Going') 32bit built on Jun 9 2014 15:08:34
Writing library : libebml v1.3.0 + libmatroska v1.4.1

Video
ID : 1
Format : AVC
Format/Info : Advanced Video Codec
Format profile : [email protected]
Format settings, CABAC : Yes
Format settings, ReFrames : 3 frames
Codec ID : V_MPEG4/ISO/AVC
Duration : 2 h 3 min
Bit rate : 925 kb/s
Width : 1 280 pixels
Height : 536 pixels
Display aspect ratio : 2.40:1
Frame rate mode : Constant
Frame rate : 23.976 (24000/1001) FPS
Color space : YUV
Chroma subsampling : 4:2:0
Bit depth : 8 bits
Scan type : Progressive
Bits/(Pixel*Frame) : 0.056
Stream size : 814 MiB (67%)
Title : Mafiaking
Language : English
Default : Yes
Forced : No

Audio #1
ID : 2
Format : AC-3
Format/Info : Audio Coding 3
Mode extension : CM (complete main)
Format settings, Endianness : Big
Codec ID : A_AC3
Duration : 2 h 3 min
Bit rate mode : Constant
Bit rate : 224 kb/s
Channel(s) : 6 channels
Channel positions : Front: L C R, Side: L R, LFE
Sampling rate : 48.0 kHz
Frame rate : 31.250 FPS (1536 spf)
Compression mode : Lossy
Stream size : 197 MiB (16%)
Title : Mafiaking
Language : Hindi
Default : Yes
Forced : No

Audio #2
ID : 3
Format : AC-3
Format/Info : Audio Coding 3
Mode extension : CM (complete main)
Format settings, Endianness : Big
Codec ID : A_AC3
Duration : 2 h 3 min
Bit rate mode : Constant
Bit rate : 224 kb/s
Channel(s) : 6 channels
Channel positions : Front: L C R, Side: L R, LFE
Sampling rate : 48.0 kHz
Frame rate : 31.250 FPS (1536 spf)
Compression mode : Lossy
Stream size : 197 MiB (16%)
Title : Mafiaking
Language : English
Default : No
Forced : No

 


Warcraft (2016) 720p BluRay x264 [Dual-Audio][English DD 5.1+ Hindi DD 5.1] - Mafiaking - M2Tvaf753325d0e2b4e4957083cd5a38fed8.md.pngWarcraft (2016) 720p BluRay x264 [Dual-Audio][English DD 5.1+ Hindi DD 5.1] - Mafiaking - M2Tv

SAMPLE

LETWATACH
*
*
*
*
*
*
*
GO4UP 
No links available
No downloads available

Genres

Related movies

Watch Dragon ball super