Remember Me
A password will be e-mailed to you.
Please enter your username or email address. You will receive a link to create a new password via email.
Cancel
PerfectHDMovies.me

Warcraft (2016) 1080p Web-HD Rip x264 Hindi AC3 2.0 -DDR 2.3 GB

Warcraft    

PG-13 123 min Dual AudioDual Audio WEB-DL 1080p

7.4
IMDB: 7.4/10 104,144 votes

, , ,

N/A

USA, China, Canada, Japan

Report error

Warcraft (2016) 1080p Web-HD Rip x264 Hindi AC3 2.0 -DDR

Warcraft (2016) 1080p Web-HD Rip x264 Hindi AC3 2.0 -DDR

Source: Web-HD @ HDC

Format : Matroska
File size : 2.26 GiB
Duration : 1h 58mn
Overall bit rate : 2 736 Kbps


Video
Format : AVC
Format/Info : Advanced Video Codec
Format profile : [email protected]
Format settings, CABAC : Yes
Format settings, ReFrames : 5 frames
Codec ID : V_MPEG4/ISO/AVC
Duration : 1h 58mn
Bit rate : 2 496 Kbps
Width : 1 920 pixels
Height : 784 pixels
Display aspect ratio : 2.40:1
Frame rate mode : Constant
Frame rate : 25.000 fps
Color space : YUV
Chroma subsampling : 4:2:0
Bit depth : 8 bits
Scan type : Progressive
Bits/(Pixel*Frame) : 0.066
Stream size : 2.06 GiB (91%)
Default : Yes
Forced : No
Color range : Limited
Color primaries : BT.709
Transfer characteristics : BT.709
Matrix coefficients : BT.709

Audio #1
Format : AC-3
Format/Info : Audio Coding 3
Mode extension : CM (complete main)
Format settings, Endianness : Big
Codec ID : A_AC3
Duration : 1h 49mn
Bit rate mode : Constant
Bit rate : 256 Kbps
Channel(s) : 2 channels
Channel positions : Front: L R
Sampling rate : 44.1 KHz
Frame rate : 28.711 fps (1536 spf)
Compression mode : Lossy
Stream size : 201 MiB (9%)
Language : Hindi
Default : Yes
Forced : No

Warcraft (2016) 1080p Web-HD Rip x264 Hindi AC3 2.0 -DDR Warcraft (2016) 1080p Web-HD Rip x264 Hindi AC3 2.0 -DDR Warcraft (2016) 1080p Web-HD Rip x264 Hindi AC3 2.0 -DDR Warcraft (2016) 1080p Web-HD Rip x264 Hindi AC3 2.0 -DDR

Specs:

LETWATACH
*
*
*
USERFILES
*
*
*
*
GO4UP
 
No links available
No downloads available

Genres

Related movies

Watch Dragon ball super