Remember Me
A password will be e-mailed to you.
Please enter your username or email address. You will receive a link to create a new password via email.
Cancel
PerfectHDMovies.me

Wanted (2008) 720p BDRip X264 Multi Audio [Tamil + Telugu + Hindi + English] 1.0 GB

Wanted    

R 110 min Dual AudioDual Audio Blu-Ray 720p

6.7
IMDB: 6.7/10 299,878 votes

, , ,

Nominated for 2 Oscars. Another 3 wins & 20 nominations.

USA, Germany

Report error

Wanted (2008) 720p BDRip X264 Multi Audio [Tamil + Telugu + Hindi + English] 1.0 GB

Wanted (2008) 720p BDRip X264 Multi Audio [Tamil + Telugu + Hindi + English]

Video
ID : 1
Format : AVC
Duration : 1h 49mn
Bit rate : 856 Kbps
Width : 1 280 pixels
Height : 544 pixels
Stream size : 672 MiB (65%)

Audio #1
ID : 2
Format : MPEG Audio
Bit rate mode : Variable
Bit rate : 128 Kbps
Channel(s) : 2 channels
Language : Tamil

Audio #2
ID : 3
Format : MPEG Audio
Bit rate : 128 Kbps
Channel(s) : 2 channels
Language : Telugu

Audio #3
ID : 4
Format : MPEG Audio
Bit rate mode : Variable
Bit rate : 96.0 Kbps
Channel(s) : 2 channels
Language : Hindi

Audio #4
ID : 5
Format : AAC
Bit rate : 96.0 Kbps
Channel(s) : 2 channels
Stream size : 75.4 MiB (7%)
Language : English

 

Wanted (2008) 720p BDRip X264 Multi Audio [Tamil + Telugu + Hindi + English] Wanted (2008) 720p BDRip X264 Multi Audio [Tamil + Telugu + Hindi + English] Wanted (2008) 720p BDRip X264 Multi Audio [Tamil + Telugu + Hindi + English]
LETWATACH
*
*
*
*
*
*
*
GO4UP 
 
No links available
No downloads available

Genres

Related movies

Watch Dragon ball super