Remember Me
A password will be e-mailed to you.
Please enter your username or email address. You will receive a link to create a new password via email.
Cancel
PerfectHDMovies.me

Vardi Wala The Iron Man 2016 Hindi 720p HDRip x264 AC3 Hon3y ~ 2.18 GB

Mr. Airavata    

N/A N/A South DubbedSouth Dubbed HDRip 720p

5.3
IMDB: 5.3/10 45 votes

N/A

India

Report error

Vardi Wala The Iron Man 2016 Hindi 720p HDRip x264 AC3 Hon3y - PerfectHDMovies

Vardi Wala The Iron Man 2016 Hindi 720p HDRip x264 AC3 Hon3y

Complete name : Vardi Wala The Iron Man 2016 Hindi 720p HDRip x264 AC3 - Hon3y
Format : Matroska
Format version : Version 4 / Version 2
File size : 2.18 GiB
Duration : 2h 32mn
Overall bit rate : 2 046 Kbps

Video
ID : 1
Format : AVC
Format/Info : Advanced Video Codec
Format profile : [email protected]
Format settings, CABAC : Yes
Format settings, ReFrames : 12 frames
Codec ID : V_MPEG4/ISO/AVC
Duration : 2h 32mn
Bit rate : 1 852 Kbps
Width : 1 280 pixels
Height : 544 pixels
Display aspect ratio : 2.35:1
Frame rate mode : Constant
Frame rate : 24.000 fps
Color space : YUV
Chroma subsampling : 4:2:0
Bit depth : 8 bits
Scan type : Progressive
Bits/(Pixel*Frame) : 0.111
Stream size : 1.93 GiB (89%)
Title : [email protected] | Rana Aqib | Hon3yHD.Com
Writing library : x264 core 146 r2538 121396c

Audio
ID : 2
Format : AC-3
Format/Info : Audio Coding 3
Mode extension : CM (complete main)
Format settings, Endianness : Big
Codec ID : A_AC3
Duration : 2h 32mn
Bit rate mode : Constant
Bit rate : 192 Kbps
Channel(s) : 2 channels
Channel positions : Front: L R
Sampling rate : 44.1 KHz
Compression mode : Lossy
Stream size : 209 MiB (9%)
Title : [email protected] | Rana Aqib | Hon3yHD.Com
Language : Hindi
Default : Yes
Forced : No
 

Click on image for full size view.
Click on image for full size view.
Click on image for full size view.
Click on image for full size view.
Click on image for full size view.
Click on image for full size view.
Click on image for full size view.
Click on image for full size view.
Click on image for full size view.

 

*
*
*
*
 

 

No links available
No downloads available

Genres

Related movies

Watch Dragon ball super