Remember Me
A password will be e-mailed to you.
Please enter your username or email address. You will receive a link to create a new password via email.
Cancel
PerfectHDMovies.me

Until Death (2007) 1080p BluRay 1080p x264 [Dual Audio] [Hindi 2.0 – English] – monu987 ~ 2.86 GB

Until Death    

R 101 min Dual AudioDual Audio Blu-Ray 1080p

6.0
IMDB: 6.0/10 7,752 votes

, , ,

N/A

UK, Bulgaria, Germany, USA

Report error

Until Death (2007) 1080p BluRay 1080p x264 [Dual Audio] [Hindi 2.0 - English] - monu987 @ PerfectHDMovies

Until Death (2007) 1080p BluRay 1080p x264 [Dual Audio] [Hindi 2.0 – English] – monu987

General
Format : Matroska
Format version : Version 4 / Version 2
File size : 2.86 GiB
Duration : 1h 47mn
Overall bit rate : 3 818 Kbps
Video
ID : 1
Format : AVC
Format/Info : Advanced Video Codec
Format profile : [email protected]
Format settings, CABAC : Yes
Format settings, ReFrames : 5 frames
Codec ID : V_MPEG4/ISO/AVC
Duration : 1h 47mn
Bit rate : 3 500 Kbps
Width : 1 920 pixels
Height : 816 pixels
Display aspect ratio : 2.35:1
Frame rate mode : Constant
Frame rate : 23.976 fps
Original frame rate : 24.000 fps
Color space : YUV
Chroma subsampling : 4:2:0
Bit depth : 8 bits
Scan type : Progressive
Bits/(Pixel*Frame) : 0.093
Stream size : 2.56 GiB (90%)
Title : monu987
Writing library : x264 core 142 r2431 ac76440
Color range : Limited
Color primaries : Generic film
Transfer characteristics : BT.709
Matrix coefficients : BT.709
Audio #1
ID : 2
Format : AC-3
Format/Info : Audio Coding 3
Mode extension : CM (complete main)
Format settings, Endianness : Big
Codec ID : A_AC3
Duration : 1h 47mn
Bit rate mode : Constant
Bit rate : 128 Kbps
Channel(s) : 2 channels
Channel positions : Front: L R
Sampling rate : 44.1 KHz
Bit depth : 16 bits
Compression mode : Lossy
Stream size : 98.2 MiB (3%)
Title : monu987
Language : Hindi
Default : Yes
Forced : Yes
Audio #2
ID : 3
Format : AC-3
Format/Info : Audio Coding 3
Mode extension : CM (complete main)
Format settings, Endianness : Big
Codec ID : A_AC3
Duration : 1h 47mn
Bit rate mode : Constant
Bit rate : 192 Kbps
Channel(s) : 6 channels
Channel positions : Front: L C R, Side: L R, LFE
Sampling rate : 48.0 KHz
Bit depth : 16 bits
Compression mode : Lossy
Stream size : 147 MiB (5%)
Title : monu987
Language : English
Default : No
Forced : No

Uploader Note:
Special Thanks To imkhan For Hindi Audio Source
Which Was Perfect Synced by Me
No Watermarks/Tags in Audio & Video ;).... Enjoy Movie:)



01ab685.md.png1384322.md.png
04ee018.md.png11be385.md.png
1228258.md.png03e11b2.md.png
058d733.md.png02ea8d4.md.png
07324f2.md.png087ecb6.md.png
06cce7e.md.png0928678.md.png
*
*
*
No links available
No downloads available

Genres

Related movies

Watch Dragon ball super