Remember Me
A password will be e-mailed to you.
Please enter your username or email address. You will receive a link to create a new password via email.
Cancel
PerfectHDMovies.me

Udta Punjab (2016) – 720p – DVDSCR-Rip – Hindi – x264 – AC3 – 2.0 – Mafiaking – M2Tv. 1.9Gb

Udta Punjab    

N/A N/A BollywoodBollywood DVDRip 720p

N/A
IMDB: N/A/10 N/A votes

, , ,

N/A

India

Report error

Udta Punjab (2016) - 720p - DVDSCR-Rip - Hindi - x264 - AC3 - 2.0 - Mafiaking - M2Tv. 1.9Gb

Udta Punjab (2016) – 720p – DVDSCR-Rip – Hindi – x264 – AC3 – 2.0 – Mafiaking – M2Tv 1.9 Gb

General
Complete name : Udta Punjab (2016) - 720p - DVDSCR-Rip - Hindi - x264 - AC3 - 2.0 - Mafiaking - M2Tv.mkv
Format : Matroska
Format version : Version 4 / Version 2
File size : 1.09 GiB
Duration : 2h 28mn
Overall bit rate : 1 049 Kbps
Movie name : Udta Punjab (2016) - 720p - DVDSCR-Rip - Hindi - x264 - AC3 - 2.0 - Mafiaking - M2Tv
Encoded date : UTC 2016-06-21 19:26:47
Writing application : mkvmerge v8.3.0 ('Over the Horizon') 64bit
Writing library : libebml v1.3.1 + libmatroska v1.4.2

Video
ID : 1
Format : AVC
Format/Info : Advanced Video Codec
Format profile : [email protected]
Format settings, CABAC : Yes
Format settings, ReFrames : 3 frames
Codec ID : V_MPEG4/ISO/AVC
Duration : 2h 28mn
Bit rate : 920 Kbps
Width : 1 280 pixels
Height : 544 pixels
Display aspect ratio : 2.35:1
Frame rate mode : Constant
Frame rate : 29.970 fps
Color space : YUV
Chroma subsampling : 4:2:0
Bit depth : 8 bits
Scan type : Progressive
Bits/(Pixel*Frame) : 0.044
Stream size : 956 MiB (86%)
Title : Mafiaking
Language : Hindi
Default : Yes
Forced : No

Audio
ID : 2
Format : AC-3
Format/Info : Audio Coding 3
Mode extension : CM (complete main)
Format settings, Endianness : Big
Codec ID : A_AC3
Duration : 2h 28mn
Bit rate mode : Constant
Bit rate : 128 Kbps
Channel(s) : 2 channels
Channel positions : Front: L R
Sampling rate : 48.0 KHz
Compression mode : Lossy
Stream size : 136 MiB (12%)
Title : Mafiaking
Language : Hindi
Default : Yes
Forced : No

No links available
No downloads available

Genres

Related movies

Watch Dragon ball super