Remember Me
A password will be e-mailed to you.
Please enter your username or email address. You will receive a link to create a new password via email.
Cancel
PerfectHDMovies.me

Udta Punjab (2016) – 1CD – DVDSCR-Rip – Hindi – x264 – MP3 – Mafiaking – M2Tv 695Mb

Udta Punjab    

N/A N/A BollywoodBollywood Pre-Releases (Latest)

8.3
IMDB: 8.3/10 N/A votes

, , ,

N/A

India

Report error

Udta Punjab (2016) - 1CD - DVDSCR-Rip - Hindi - x264 - MP3 - Mafiaking - M2Tv

Udta Punjab (2016) – 1CD – DVDSCR-Rip – Hindi – x264 – MP3 – Mafiaking – M2Tv 695Mb

Ratings: 8.3/10

Genere: Crime, Drama, Thriller

General
Unique ID : 176161522417548485317098247595113069578 (0x848779A0A175AC3A9109CBD2E6B43C0A)
Complete name : Udta Punjab (2016) - 1CD - DVDSCR-Rip - Hindi - x264 - MP3 - Mafiaking - M2Tv.mkv
Format : Matroska
Format version : Version 4 / Version 2
File size : 696 MiB
Duration : 2h 28mn
Overall bit rate : 655 Kbps
Movie name : Udta Punjab (2016) - 1CD - DVDSCR-Rip - Hindi - x264 - MP3 - Mafiaking - M2Tv
Encoded date : UTC 2016-06-18 13:28:18
Writing application : mkvmerge v8.3.0 ('Over the Horizon') 64bit
Writing library : libebml v1.3.1 + libmatroska v1.4.2

Video
ID : 1
Format : AVC
Format/Info : Advanced Video Codec
Format profile : [email protected]
Format settings, CABAC : Yes
Format settings, ReFrames : 3 frames
Codec ID : V_MPEG4/ISO/AVC
Duration : 2h 28mn
Bit rate : 590 Kbps
Width : 640 pixels
Height : 272 pixels
Display aspect ratio : 2.35:1
Frame rate mode : Constant
Frame rate : 29.970 fps
Color space : YUV
Chroma subsampling : 4:2:0
Bit depth : 8 bits
Scan type : Progressive
Bits/(Pixel*Frame) : 0.113
Stream size : 614 MiB (88%)
Title : Mafiaking
Language : Hindi
Default : Yes
Forced : No

Audio
ID : 2
Format : MPEG Audio
Format version : Version 2
Format profile : Layer 3
Mode : Joint stereo
Codec ID : A_MPEG/L3
Codec ID/Hint : MP3
Duration : 2h 28mn
Bit rate mode : Constant
Bit rate : 64.0 Kbps
Channel(s) : 2 channels
Sampling rate : 24.0 KHz
Compression mode : Lossy
Stream size : 68.0 MiB (10%)
Title : Mafiaking
Writing library : LAME3.99r
Language : Hindi
Default : Yes
Forced : No
No links available
No downloads available

Genres

Related movies

Watch Dragon ball super