Remember Me
A password will be e-mailed to you.
Please enter your username or email address. You will receive a link to create a new password via email.
Cancel
PerfectHDMovies.me

Udaan 2010 – 1/2 BDRip x264 AC3 Esubs ALICE TDBB

Udaan    

NOT RATED 134 min Bollywood

8.3
IMDB: 8.3/10 28,081 votes

, , ,

13 wins & 21 nominations.

India

Report error

 Source: 50 GB @ DRs thnx you!
 Complete name : D:Udaan 2010 - BDRip x264 AC3 Esubs ALICE TDBB.mkv
 Format : Matroska
 Format version : Version 2
 File size : 2.21 GiB
 Duration : 2h 17mn
 Overall bit rate mode : Variable
 Overall bit rate : 2 303 Kbps
 Encoded date : UTC 2016-02-07 16:02:16
 Writing application : mkvmerge v4.0.0 ('The Stars were mine') gemaakt op Jun 6 2010 16:18:42
 Writing library : libebml v1.0.0 + libmatroska v1.0.0
 
 Video
 ID : 1
 Format : AVC
 Format/Info : Advanced Video Codec
 Format profile : [email protected]
 Format settings, CABAC : Yes
 Format settings, ReFrames : 3 frames
 Codec ID : V_MPEG4/ISO/AVC
 Duration : 2h 17mn
 Bit rate mode : Variable
 Bit rate : 1 854 Kbps
 Maximum bit rate : 40.0 Mbps
 Width : 720 pixels
 Height : 304 pixels
 Display aspect ratio : 2.35:1
 Frame rate mode : Constant
 Frame rate : 24.000 fps
 Color space : YUV
 Chroma subsampling : 4:2:0
 Bit depth : 8 bits
 Scan type : Progressive
 Bits/(Pixel*Frame) : 0.353
 Stream size : 1.74 GiB (79%)
 Writing library : x264 core 98 r1649 c54c47d
 
 Language : English
 Default : No
 Forced : No
 Color primaries : BT.709
 Transfer characteristics : BT.709
 Matrix coefficients : BT.709
 
 Audio
 ID : 2
 Format : AC-3
 Format/Info : Audio Coding 3
 Mode extension : CM (complete main)
 Format settings, Endianness : Big
 Codec ID : A_AC3
 Duration : 2h 17mn
 Bit rate mode : Constant
 Bit rate : 448 Kbps
 Channel(s) : 6 channels
 Channel positions : Front: L C R, Side: L R, LFE
 Sampling rate : 48.0 KHz
 Bit depth : 16 bits
 Compression mode : Lossy
 Stream size : 441 MiB (19%)
 Default : Yes
 Forced : No
 
LETWATACH
*
VODLOCKER
*
*
*
*
*
 

 

No links available
No downloads available

Genres

Related movies

Watch Dragon ball super