Remember Me
A password will be e-mailed to you.
Please enter your username or email address. You will receive a link to create a new password via email.
Cancel
PerfectHDMovies.me

Twins Of Evil (1971) 720p BluRay x264 [Dual Audio] [Hindi DD 2.0 – English] – monu987 1.82 GB

Twins of Evil    

R 87 min Dual AudioDual Audio Blu-Ray 720p

6.6
IMDB: 6.6/10 2,932 votes

, , ,

N/A

UK

Report error



Twins Of Evil (1971) 720p BluRay x264 [Dual Audio] [Hindi DD 2.0 – English] – monu987
Format : Matroska
Format version : Version 4 / Version 2
File size : 1.80 GiB
Duration : 1h 27mn
Overall bit rate : 2 946 Kbps




Video
ID : 1
Format : AVC
Format/Info : Advanced Video Codec
Format profile : [email protected]
Format settings, CABAC : Yes
Format settings, ReFrames : 8 frames
Codec ID : V_MPEG4/ISO/AVC
Bit rate : 2 560 Kbps
Width : 1 280 pixels
Height : 720 pixels
Display aspect ratio : 16:9
Frame rate mode : Variable
Color space : YUV
Chroma subsampling : 4:2:0
Bit depth : 8 bits
Scan type : Progressive
Title : monu987
Writing library : x264 core 142 r2389 956c8d8
Color range : Limited
Color primaries : BT.709
Transfer characteristics : BT.709
Matrix coefficients : BT.709




Audio #1
ID : 2
Format : AC-3
Format/Info : Audio Coding 3
Format profile : Dolby Digital
Mode extension : CM (complete main)
Format settings, Endianness : Big
Codec ID : A_AC3
Duration : 1h 27mn
Bit rate mode : Constant
Bit rate : 224 Kbps
Channel(s) : 2 channels
Channel positions : Front: L R
Sampling rate : 44.1 KHz
Bit depth : 16 bits
Compression mode : Lossy
Delay relative to video : -100ms
Stream size : 140 MiB (8%)
Title : monu987
Language : Hindi
Default : Yes
Forced : Yes




Audio #2
ID : 3
Format : AC-3
Format/Info : Audio Coding 3
Mode extension : CM (complete main)
Format settings, Endianness : Big
Codec ID : A_AC3
Duration : 1h 27mn
Bit rate mode : Constant
Bit rate : 160 Kbps
Channel(s) : 2 channels
Channel positions : Front: L R
Sampling rate : 48.0 KHz
Bit depth : 16 bits
Compression mode : Lossy
Delay relative to video : -5ms
Stream size : 99.9 MiB (5%)
Title : monu987
Language : English
Default : No
Forced : No


Text
ID : 4
Format : UTF-8
Codec ID : S_TEXT/UTF8
Codec ID/Info : UTF-8 Plain Text
Title : monu987
Language : English
Default : Yes

Forced : Yes

LETWATACH 
*
VODLOCKER

 

No links available
No downloads available

Genres

Related movies

Watch Dragon ball super