Remember Me
A password will be e-mailed to you.
Please enter your username or email address. You will receive a link to create a new password via email.
Cancel
PerfectHDMovies.me

True Grit (2010) 720p BluRay x264 [Dual-Audio][English DD 5.1 + Hindi DD 2.0] – Mafiaking – M2Tv 1.1Gb

PG-13 Dual AudioDual Audio Blu-Ray 720p

7.7
IMDB: 7.7/10 votes

,

, ,

Nominated for 10 Oscars. Another 37 wins & 148 nominations

USA

Report error

True Grit (2010) 720p BluRay x264 [Dual-Audio][English DD 5.1 + Hindi DD 2.0] - Mafiaking - M2Tv

True Grit (2010) 720p BluRay x264 [Dual-Audio][English DD 5.1 + Hindi DD 2.0] – Mafiaking – M2Tv 1.1Gb

Ratings: 7.7/10

Genere: Adventure, Drama, Western

General
Unique ID : 230544354549734936709194293389227383031 (0xAD713A4394442342AF058F51160ED8F7)
Complete name : True Grit (2010) 720p BluRay x264 [Dual-Audio][English DD 5.1 + Hindi DD 2.0] - Mafiaking - M2Tv.mkv
Format : Matroska
Format version : Version 4 / Version 2
File size : 1.06 GiB
Duration : 1h 45mn
Overall bit rate mode : Variable
Overall bit rate : 1 440 Kbps
Movie name : True Grit (2010) 720p BluRay x264 [Dual-Audio][English DD 5.1 + Hindi DD 2.0] - Mafiaking - M2Tv
Encoded date : UTC 2016-06-09 17:05:20
Writing application : mkvmerge v8.3.0 ('Over the Horizon') 64bit
Writing library : libebml v1.3.1 + libmatroska v1.4.2

Video
ID : 1
Format : AVC
Format/Info : Advanced Video Codec
Format profile : [email protected]
Format settings, CABAC : Yes
Format settings, ReFrames : 3 frames
Codec ID : V_MPEG4/ISO/AVC
Duration : 1h 45mn
Bit rate mode : Variable
Bit rate : 950 Kbps
Maximum bit rate : 62.5 Mbps
Width : 1 280 pixels
Height : 544 pixels
Display aspect ratio : 2.35:1
Frame rate mode : Constant
Frame rate : 25.000 fps
Color space : YUV
Chroma subsampling : 4:2:0
Bit depth : 8 bits
Scan type : Progressive
Bits/(Pixel*Frame) : 0.055
Stream size : 729 MiB (67%)
Title : Mafiaking
Language : English
Default : Yes
Forced : No

Audio #1
ID : 2
Format : AC-3
Format/Info : Audio Coding 3
Mode extension : CM (complete main)
Format settings, Endianness : Big
Codec ID : A_AC3
Duration : 1h 45mn
Bit rate mode : Constant
Bit rate : 224 Kbps
Channel(s) : 2 channels
Channel positions : Front: L R
Sampling rate : 48.0 KHz
Compression mode : Lossy
Stream size : 170 MiB (16%)
Title : Mafiaking
Language : Hindi
Default : Yes
Forced : No

Audio #2
ID : 3
Format : AC-3
Format/Info : Audio Coding 3
Mode extension : CM (complete main)
Format settings, Endianness : Big
Codec ID : A_AC3
Duration : 1h 45mn
Bit rate mode : Constant
Bit rate : 224 Kbps
Channel(s) : 6 channels
Channel positions : Front: L C R, Side: L R, LFE
Sampling rate : 48.0 KHz
Compression mode : Lossy
Stream size : 170 MiB (16%)
Title : Mafiaking
Language : English
Default : No
Forced : No

Text
ID : 4
Format : UTF-8
Codec ID : S_TEXT/UTF8
Codec ID/Info : UTF-8 Plain Text
Title : Mafiaking
Language : English
Default : Yes
Forced : No
No links available
No downloads available

Genres

Related movies

Watch Dragon ball super