Remember Me
A password will be e-mailed to you.
Please enter your username or email address. You will receive a link to create a new password via email.
Cancel
PerfectHDMovies.me
720p Bluray True Grit (2010) 720p BluRay Org 2.0 Hindi+Eng 5.1 -~{D@rK$e!D}~ 1.9Gb
Report error

True Grit (2010) 720p BluRay Org 2.0 Hindi+Eng 5.1 [email protected]$e!D}~ 1.9Gb

PG-13 Dual AudioDual Audio Blu-Ray 720p

7.7
IMDB: 7.7/10 votes

,

, ,

Nominated for 10 Oscars. Another 37 wins & 148 nominations

USA

Report error

True Grit (2010) 720p BluRay Org 2.0 Hindi+Eng 5.1 -~{D@rK$e!D}~

True Grit (2010) 720p BluRay Org 2.0 Hindi+Eng 5.1 [email protected]$e!D}~ 1.9Gb

!!! 1st On Net !!!

True Grit (2010) 720p BluRay Org 2.0 Hindi+Eng 5.1 -~{D@rK$e!D}~

Complete Name :True.Grit.(2010).[email protected]$e!D}~
Format : Matroska
Format version : Version 4 / Version 2
File size : 1.93 GiB
Duration : 1h 45mn
Overall bit rate : 2 613 Kbps

Video
ID : 1
Format : AVC
Format/Info : Advanced Video Codec
Format profile : [email protected]
Format settings, CABAC : Yes
Format settings, ReFrames : 8 frames
Codec ID : V_MPEG4/ISO/AVC
Duration : 1h 45mn
Bit rate : 2 075 Kbps
Width : 1 280 pixels
Height : 544 pixels
Display aspect ratio : 2.35:1
Frame rate mode : Constant
Frame rate : 25.000 fps
Color space : YUV
Chroma subsampling : 4:2:0
Bit depth : 8 bits
Scan type : Progressive
Bits/(Pixel*Frame) : 0.119
Stream size : 1.60 GiB (83%)
Title : True.Grit.(2010).720.BluRay.Dual.Audio.Hindi.2.0+Eng.5.1.~The [email protected]$e!D~


Audio #1
ID : 2
Format : AC-3
Format/Info : Audio Coding 3
Mode extension : CM (complete main)
Format settings, Endianness : Big
Codec ID : A_AC3
Duration : 1h 45mn
Bit rate mode : Constant
Bit rate : 224 Kbps
Channel(s) : 2 channels
Channel positions : Front: L R
Sampling rate : 48.0 KHz
Frame rate : 25.000 fps
Compression mode : Lossy
Stream size : 169 MiB (9%)
Title : ~Org Untouched VcD 2.0 224kbps~
Language : Hindi
Default : Yes
Forced : No

Audio #2
ID : 3
Format : AC-3
Format/Info : Audio Coding 3
Mode extension : CM (complete main)
Format settings, Endianness : Big
Codec ID : A_AC3
Duration : 1h 45mn
Bit rate mode : Constant
Bit rate : 224 Kbps
Channel(s) : 6 channels
Channel positions : Front: L C R, Side: L R, LFE
Sampling rate : 48.0 KHz
Frame rate : 25.000 fps
Compression mode : Lossy
Stream size : 170 MiB (9%)
Title : ~Org DvD 5.1 224kbps~
Language : English
Default : No
Forced : No
No links available
No downloads available

Genres

Related movies

Watch Dragon ball super