Remember Me
A password will be e-mailed to you.
Please enter your username or email address. You will receive a link to create a new password via email.
Cancel
PerfectHDMovies.me

Transformers Dark Of The Moon 2011 BluRay 1080p x264 Multi Audio[Eng Hin Tam Tel] AC3 5 1 Hon3y ~ 4.43 GB

South DubbedSouth Dubbed Blu-Ray 1080p

IMDB: /10 votes

Report error

 
General
Format : Matroska
Format version : Version 4 / Version 2
File size : 4.38 GiB
Duration : 2h 34mn
Overall bit rate : 4 062 Kbps

Video
Format : AVC
Format/Info : Advanced Video Codec
Format profile : [email protected]
Format settings, CABAC : Yes
Format settings, ReFrames : 5 frames
Codec ID : V_MPEG4/ISO/AVC
Duration : 2h 34mn
Bit rate : 3 155 Kbps
Width : 1 920 pixels
Height : 800 pixels
Display aspect ratio : 2.40:1
Frame rate mode : Constant
Frame rate : 23.976 (24000/1001) fps
Color space : YUV
Chroma subsampling : 4:2:0
Bit depth : 8 bits
Scan type : Progressive
Bits/(Pixel*Frame) : 0.086
Stream size : 3.40 GiB (78%)
Title : [email protected]

Audio 1
Format : AC-3
Format/Info : Audio Coding 3
Mode extension : CM (complete main)
Format settings, Endianness : Big
Codec ID : A_AC3
Duration : 2h 34mn
Bit rate mode : Constant
Bit rate : 224 Kbps
Channel(s) : 6 channels
Channel positions : Front: L C R, Side: L R, LFE
Sampling rate : 48.0 KHz
Frame rate : 31.250 fps (1536 spf)
Compression mode : Lossy
Stream size : 247 MiB (6%)
Title : Hindi—[email protected]
Language : Hindi
Default : Yes
Forced : Yes

Audio 2
Format : AC-3
Format/Info : Audio Coding 3
Mode extension : CM (complete main)
Format settings, Endianness : Big
Codec ID : A_AC3
Duration : 2h 34mn
Bit rate mode : Constant
Bit rate : 224 Kbps
Channel(s) : 6 channels
Channel positions : Front: L C R, Side: L R, LFE
Sampling rate : 48.0 KHz
Frame rate : 31.250 fps (1536 spf)
Compression mode : Lossy
Stream size : 247 MiB (6%)
Title : Tamil—[email protected]
Language : Tamil
Default : No
Forced : No

Audio 3
Format : AC-3
Format/Info : Audio Coding 3
Mode extension : CM (complete main)
Format settings, Endianness : Big
Codec ID : A_AC3
Duration : 2h 34mn
Bit rate mode : Constant
Bit rate : 224 Kbps
Channel(s) : 6 channels
Channel positions : Front: L C R, Side: L R, LFE
Sampling rate : 48.0 KHz
Frame rate : 31.250 fps (1536 spf)
Compression mode : Lossy
Delay relative to video : 2s 300ms
Stream size : 247 MiB (6%)
Title : Telugu—[email protected]
Language : Telugu
Default : No
Forced : No

Audio 4
Format : AC-3
Format/Info : Audio Coding 3
Mode extension : CM (complete main)
Format settings, Endianness : Big
Codec ID : A_AC3
Duration : 2h 34mn
Bit rate mode : Constant
Bit rate : 224 Kbps
Channel(s) : 6 channels
Channel positions : Front: L C R, Side: L R, LFE
Sampling rate : 48.0 KHz
Frame rate : 31.250 fps (1536 spf)
Compression mode : Lossy
Stream size : 247 MiB (6%)
Title : English—[email protected]
Language : English
Default : No
Forced : No


Text
Format : PGS
Muxing mode : zlib
Codec ID : S_HDMV/PGS
Codec ID/Info : Picture based subtitle format used on BDs/HD-DVDs
Duration : 2h 25mn
Bit rate : 12.5 Kbps
Count of elements : 4136
Stream size : 13.0 MiB (0%)
Title : English—[email protected]
Language : English
Default : Yes
Forced : No
 
 
 
 
 

 

 
No links available
No downloads available

Genres

Related movies

Watch Dragon ball super