Remember Me
A password will be e-mailed to you.
Please enter your username or email address. You will receive a link to create a new password via email.
Cancel
PerfectHDMovies.me

The Worlds Fastest Indian (2005) 720p BluRay x264 [Dual Audio] [Hindi 2.0 – English] – monu987 1.06 GiB

The World's Fastest Indian    

PG-13 127 min Dual AudioDual Audio Blu-Ray 720p

7.9
IMDB: 7.9/10 44,144 votes

, , ,

10 wins & 6 nominations.

New Zealand, USA, Switzerland, Japan

Report error

The Worlds Fastest Indian (2005) 720p BluRay x264 [Dual Audio] [Hindi 2.0 - English] - monu987

The Worlds Fastest Indian (2005) 720p BluRay x264 [Dual Audio] [Hindi 2.0 – English] – monu987

Format : Matroska
Format version : Version 4 / Version 2
File size : 1.06 GiB
Duration : 2h 7mn
Overall bit rate : 1 193 Kbps
Movie name : The Worlds Fastest Indian (2005) 720p - monu987
DURATION : 02:06:59.744000000


Video
ID : 1
Format : AVC
Format/Info : Advanced Video Codec
Format profile : [email protected]
Format settings, CABAC : Yes
Format settings, ReFrames : 4 frames
Codec ID : V_MPEG4/ISO/AVC
Duration : 2h 7mn
Bit rate : 786 Kbps
Nominal bit rate : 843 Kbps
Width : 1 280 pixels
Height : 546 pixels
Display aspect ratio : 2.35:1
Frame rate mode : Constant
Frame rate : 23.976 fps
Original frame rate : 25.000 fps
Color space : YUV
Chroma subsampling : 4:2:0
Bit depth : 8 bits
Scan type : Progressive
Bits/(Pixel*Frame) : 0.047
Stream size : 714 MiB (66%)
Title : monu987


Audio #1
ID : 2
Format : AC-3
Format/Info : Audio Coding 3
Mode extension : CM (complete main)
Format settings, Endianness : Big
Codec ID : A_AC3
Duration : 2h 7mn
Bit rate mode : Constant
Bit rate : 192 Kbps
Channel(s) : 2 channels
Channel positions : Front: L R
Sampling rate : 48.0 KHz
Compression mode : Lossy
Stream size : 174 MiB (16%)
Title : monu987
Language : Hindi
Default : Yes
Forced : Yes

Audio #2
ID : 3
Format : AC-3
Format/Info : Audio Coding 3
Mode extension : CM (complete main)
Format settings, Endianness : Big
Codec ID : A_AC3
Duration : 2h 7mn
Bit rate mode : Constant
Bit rate : 192 Kbps
Channel(s) : 6 channels
Channel positions : Front: L C R, Side: L R, LFE
Sampling rate : 48.0 KHz
Compression mode : Lossy
Stream size : 174 MiB (16%)
Title : monu987
Language : English
Default : No
Forced : No

 

The Worlds Fastest Indian (2005) 720p BluRay x264 [Dual Audio] [Hindi 2.0 - English] - monu987 The Worlds Fastest Indian (2005) 720p BluRay x264 [Dual Audio] [Hindi 2.0 - English] - monu987The Worlds Fastest Indian (2005) 720p BluRay x264 [Dual Audio] [Hindi 2.0 - English] - monu987

LETWATACH
*
*
*
*
*
*
*
GO4UP 
 
No links available
No downloads available

Genres

Related movies

Watch Dragon ball super