Remember Me
A password will be e-mailed to you.
Please enter your username or email address. You will receive a link to create a new password via email.
Cancel
PerfectHDMovies.me

The Wolverine (2013) Extended Cut 720p Blu-Ray x264 [Dual-Audio][English BD 5.1 + Hindi BD 5.1] – Mafiaking

The Wolverine    

PG-13 126 min Dual AudioDual Audio Blu-Ray 720p

6.7
IMDB: 6.7/10 295,516 votes

, , ,

2 wins & 10 nominations.

USA, UK, Australia, Japan

Report error

ipJaGNK

`The Wolverine (2013) Extended Cut 720p Blu-Ray x264 [Dual-Audio][English BD 5.1 + Hindi BD 5.1] – Mafiaking

http://www.imdb.com/title/tt1430132/

Rating: 6.9/10.0
GENRE: Action | Adventure | Fantasy

General
Format : Matroska
Format version : Version 4 / Version 2
File size : 1.18 GiB
Duration : 2h 18mn
Overall bit rate : 1 220 Kbps

Video
ID : 1
Format : AVC
Format/Info : Advanced Video Codec
Format profile : [email protected]
Format settings, CABAC : Yes
Format settings, ReFrames : 5 frames
Codec ID : V_MPEG4/ISO/AVC
Duration : 2h 18mn
Bit rate : 899 Kbps
Width : 1 280 pixels
Height : 536 pixels
Display aspect ratio : 2.40:1
Frame rate mode : Constant
Frame rate : 23.976 fps
Color space : YUV
Chroma subsampling : 4:2:0
Bit depth : 8 bits
Scan type : Progressive
Bits/(Pixel*Frame) : 0.055
Stream size : 866 MiB (72%)
Title : Mafiaking

Language : English
Default : Yes
Forced : No


Audio #1
ID : 2
Format : AC-3
Format/Info : Audio Coding 3
Mode extension : CM (complete main)
Format settings, Endianness : Big
Codec ID : A_AC3
Duration : 2h 18mn
Bit rate mode : Constant
Bit rate : 192 Kbps
Channel(s) : 6 channels
Channel positions : Front: L C R, Side: L R, LFE
Sampling rate : 48.0 KHz
Bit depth : 16 bits
Compression mode : Lossy
Stream size : 190 MiB (16%)
Title : Mafiaking
Language : Hindi
Default : Yes
Forced : No

Audio #2
ID : 3
Format : AC-3
Format/Info : Audio Coding 3
Mode extension : CM (complete main)
Format settings, Endianness : Big
Codec ID : A_AC3
Duration : 2h 18mn
Bit rate mode : Constant
Bit rate : 128 Kbps
Channel(s) : 6 channels
Channel positions : Front: L C R, Side: L R, LFE
Sampling rate : 48.0 KHz
Bit depth : 16 bits
Compression mode : Lossy
Stream size : 127 MiB (10%)
Title : Mafiaking
Language : English
Default : No
Forced : No
No links available
No downloads available

Genres

Related movies

Watch Dragon ball super