Remember Me
A password will be e-mailed to you.
Please enter your username or email address. You will receive a link to create a new password via email.
Cancel
PerfectHDMovies.me

The Wolverine [2013] 1080p BDRip x264 Hindi DD 5 1 Ch Hon3y ~ 3.76 GB

Dual AudioDual Audio Blu-Ray 1080p

IMDB: /10 votes

Report error

 General
The Wolverine [2013] 1080p BDRip x264 Hindi DD 5.1 Ch...Hon3y.mkv
Format : Matroska
Format version : Version 4 / Version 2
File size : 3.71 GiB
Duration : 2h 18mn
Overall bit rate : 3 843 Kbps


Video
ID : 1
Format : AVC
Format/Info : Advanced Video Codec
Format profile : [email protected]
Format settings, CABAC : Yes
Format settings, ReFrames : 5 frames
Codec ID : V_MPEG4/ISO/AVC
Duration : 2h 18mn
Bit rate : 3 400 Kbps
Width : 1 920 pixels
Height : 800 pixels
Display aspect ratio : 2.40:1
Frame rate mode : Constant
Frame rate : 23.976 fps
Color space : YUV
Chroma subsampling : 4:2:0
Bit depth : 8 bits
Scan type : Progressive
Bits/(Pixel*Frame) : 0.092
Stream size : 3.20 GiB (86%)
Title : JmD007


Audio
ID : 2
Format : AC-3
Format/Info : Audio Coding 3
Mode extension : CM (complete main)
Format settings, Endianness : Big
Codec ID : A_AC3
Duration : 2h 18mn
Bit rate mode : Constant
Bit rate : 448 Kbps
Channel(s) : 6 channels
Channel positions : Front: L C R, Side: L R, LFE
Sampling rate : 48.0 KHz
Bit depth : 16 bits
Compression mode : Lossy
Stream size : 442 MiB (12%)
Title : JmD007
Language : Hindi
Default : Yes
Forced : No
 

Click on image for full size view.
Click on image for full size view.
Click on image for full size view.

 

*
*
*
 

 

No links available
No downloads available

Genres

Related movies

Watch Dragon ball super