Remember Me
A password will be e-mailed to you.
Please enter your username or email address. You will receive a link to create a new password via email.
Cancel
PerfectHDMovies.me

The.VVitch (2015) 1080p BDRip Dual Audio Org Hindi 5.1+Eng [email protected]}~ 2.5 Gb

The Witch    

R 92 min Dual AudioDual Audio Blu-Ray 1080p

6.8
IMDB: 6.8/10 64,188 votes

, , ,

6 wins & 2 nominations.

USA, UK, Canada, Brazil

Report error

The.VVitch (2015) 1080p BDRip Dual Audio Org Hindi 5.1+Eng 5.1~{DJ_DOOM$D@Y}~

The.VVitch (2015) 1080p BDRip Dual Audio Org Hindi 5.1+Eng [email protected]}~

Movie Infomation
Complete name : The.VVitch.(2015).[email protected]}~.mkv
Format : Matroska

Format version : Version 4 / Version 2

File size : 2.51 GiB

Duration : 1h 28mn

Overall bit rate mode : Variable

Overall bit rate : 4 042 Kbps

Movie name : The.VVitch.(2015).[email protected]}~

Encoded date : UTC 2016-08-02 06:56:27

Video

ID : 1

Format : AVC

Format/Info : Advanced Video Codec

Format profile : [email protected]

Format settings, CABAC : Yes

Format settings, ReFrames : 4 frames

Codec ID : V_MPEG4/ISO/AVC

Duration : 1h 28mn

Bit rate mode : Variable

Bit rate : 3 000 Kbps

Maximum bit rate : 62.5 Mbps

Width : 1 804 pixels

Height : 1 080 pixels

Display aspect ratio : 5:3

Frame rate mode : Constant

Frame rate : 25.000 fps

Color space : YUV

Chroma subsampling : 4:2:0

Bit depth : 8 bits

Scan type : Progressive

Bits/(Pixel*Frame) : 0.062

Stream size : 1.94 GiB (77%)

Title : The.VVitch.(2015).[email protected]}~

Language : Hindi

Default : Yes

Audio #1

ID : 2

Format : AC-3

Format/Info : Audio Coding 3

Mode extension : CM (complete main)

Format settings, Endianness : Big

Codec ID : A_AC3

Duration : 1h 28mn

Bit rate mode : Constant

Bit rate : 448 Kbps

Channel(s) : 6 channels

Channel positions : Front: L C R, Side: L R, LFE

Sampling rate : 48.0 KHz

Frame rate : 31.250 fps (1536 spf)

Compression mode : Lossy

Stream size : 284 MiB (11%)

Title : [email protected]

Language : Hindi

Default : Yes

Audio #2

ID : 3

Format : AC-3

Format/Info : Audio Coding 3

Mode extension : CM (complete main)

Format settings, Endianness : Big

Codec ID : A_AC3

Duration : 1h 28mn

Bit rate mode : Constant

Bit rate : 448 Kbps

Channel(s) : 6 channels

Channel positions : Front: L C R, Side: L R, LFE

Sampling rate : 48.0 KHz

Frame rate : 31.250 fps (1536 spf)

Compression mode : Lossy

Stream size : 284 MiB (11%)

Title : [email protected]

Language : English

Default : No

Text #1

ID : 4

Format : PGS

Muxing mode : zlib

Codec ID : S_HDMV/PGS

Codec ID/Info : Picture based subtitle format used on BDs/HD-DVDs

Duration : 1h 23mn

Bit rate : 10.1 Kbps

Count of elements : 2113

Stream size : 6.00 MiB (0%)

Title : ~PGS

Language : English

Default : Yes

Text #2

ID : 5

Format : PGS

Muxing mode : zlib

Codec ID : S_HDMV/PGS

Codec ID/Info : Picture based subtitle format used on BDs/HD-DVDs

Duration : 1h 27mn

Bit rate : 7 442 bps

Count of elements : 1768

Stream size : 4.65 MiB (0%)

Title : ~PGS

Language : Hindi

Default : No

 

The.VVitch (2015) 1080p BDRip Dual Audio Org Hindi 5.1+Eng 5.1~{DJ_DOOM$D@Y}~The.VVitch (2015) 1080p BDRip Dual Audio Org Hindi 5.1+Eng 5.1~{DJ_DOOM$D@Y}~The.VVitch (2015) 1080p BDRip Dual Audio Org Hindi 5.1+Eng 5.1~{DJ_DOOM$D@Y}~
LETWATACH
*
*
*
*
*
*
*
GO4UP 
 
 
No links available
No downloads available

Genres

Related movies

Watch Dragon ball super