Remember Me
A password will be e-mailed to you.
Please enter your username or email address. You will receive a link to create a new password via email.
Cancel
PerfectHDMovies.me

The Tuxedo (2002) 720p WEB-DL x264 [Dual Audio] [Hindi DD 2.0 – English ] – monu987 3.03 GB

The Tuxedo    

PG-13 98 min Dual AudioDual Audio WEB-DL 720p

5.3
IMDB: 5.3/10 58,866 votes

, , ,

2 wins & 1 nomination.

USA

Report error

 

The Tuxedo (2002) 720p WEB-DL x264 [Dual Audio] [Hindi DD 2.0 – English ] – monu987
Format : Matroska
Format version : Version 4 / Version 2
File size : 2.98 GiB
Duration : 1h 38mn
Overall bit rate : 4 325 Kbps




Video
ID : 1
Format : AVC
Format/Info : Advanced Video Codec
Format profile : [email protected]
Format settings, CABAC : No
Format settings, ReFrames : 2 frames
Codec ID : V_MPEG4/ISO/AVC
Duration : 1h 38mn
Bit rate : 3 823 Kbps
Width : 1 280 pixels
Height : 720 pixels
Display aspect ratio : 16:9
Frame rate mode : Constant
Frame rate : 23.976 fps
Color space : YUV
Chroma subsampling : 4:2:0
Bit depth : 8 bits
Scan type : Progressive
Bits/(Pixel*Frame) : 0.173
Stream size : 2.64 GiB (88%)
Title : monu987
Language : English
Default : Yes
Forced : No
Color range : Limited
Color primaries : BT.709
Transfer characteristics : BT.709
Matrix coefficients : BT.709


Audio #1
ID : 2
Format : AC-3
Format/Info : Audio Coding 3
Format profile : Dolby Digital
Mode extension : CM (complete main)
Format settings, Endianness : Big
Codec ID : A_AC3
Duration : 1h 38mn
Bit rate mode : Constant
Bit rate : 224 Kbps
Channel(s) : 2 channels
Channel positions : Front: L R
Sampling rate : 44.1 KHz
Bit depth : 16 bits
Compression mode : Lossy
Stream size : 158 MiB (5%)
Title : monu987
Language : Hindi
Default : Yes
Forced : Yes


Audio #2
ID : 3
Format : AC-3
Format/Info : Audio Coding 3
Mode extension : CM (complete main)
Format settings, Endianness : Big
Codec ID : A_AC3
Duration : 1h 38mn
Bit rate mode : Constant
Bit rate : 192 Kbps
Channel(s) : 6 channels
Channel positions : Front: L C R, Side: L R, LFE
Sampling rate : 48.0 KHz
Bit depth : 16 bits
Compression mode : Lossy
Stream size : 136 MiB (4%)
Title : monu987
Language : English
Default : No
Forced : No


Text
ID : 4
Format : UTF-8
Codec ID : S_TEXT/UTF8
Codec ID/Info : UTF-8 Plain Text
Title : monu987
Language : English
Default : Yes
Forced : Yes


Special Thanks To Vikas Bro For Original Hindi Audio………..
Which Was Perfect Synced & Edited by Me……….


Note: No Watermarks/Tags in Audio & Video ;)…. Enjoy Movie:)




03d678e.md.png 09.md.png
02412d6.md.png 01.md.png
06bdd81.md.png 10.md.png
04e0a3d.md.png 12.md.png
07.md.png 11ece04.md.png
05.md.png 08.md.png




Special Thanks To – TMX, Invincible,Sadhu’s-HD,Sher-Khan,sbaz44,TBI,DrStar,Dredd,David,Shawn-James, Abu-HamzaRespect To All Teams – HDDR,Gpsoft,IcTv,SDR,HKRG,TEAM warriors,TeamTNT,M2TV,Hon3y,Team-Exd,XMR,TMRG,PerfectHDMovies and other past-present teamsAlso Thanks To All Hollywood Hindi Dubbed Movie Lovers For There Appreciation (y)
LETWATACH 
*
VODLOCKER
JHEBERG
*
GO4UP

 

No links available
No downloads available

Genres

Related movies

Watch Dragon ball super