Remember Me
A password will be e-mailed to you.
Please enter your username or email address. You will receive a link to create a new password via email.
Cancel
PerfectHDMovies.me

The Transporter Refueled (2015) 720p BluRay [Dual-Audio] [English DD 5.1 + Hindi DD 5.1] – Mafiaking – M2Tv ~ 967 MB

The Transporter Refueled    

PG-13 96 min Dual AudioDual Audio Blu-Ray 720p

5.1
IMDB: 5.1/10 20,944 votes

, , ,

N/A

France, China

Report error

 
Video ID : 1 Format : AVC Format/Info : Advanced Video Codec Format profile :[email protected] Format settings, CABAC : Yes Format settings, ReFrames : 4 frames Codec ID : V_MPEG4/ISO/AVC Duration : 1h 35mn Bit rate : 950 Kbps Width : 1 280 pixels Height : 536 pixels Display aspect ratio : 2.40:1 Frame rate mode : Constant Frame rate : 23.976 fps Color space : YUV Chroma subsampling : 4:2:0 Bit depth : 8 bits Scan type : Progressive Bits/(Pixel*Frame) : 0.058 Stream size : 634 MiB (66%) Title : Mafiaking Language : English Default : Yes Forced : NoAudio #1 ID : 2 Format : AC-3 Format/Info : Audio Coding 3 Mode extension : CM (complete main) Format settings, Endianness : Big Codec ID : A_AC3 Duration : 1h 35mn Bit rate mode : Constant Bit rate : 224 Kbps Channel(s) : 6 channels Channel positions : Front: L C R, Side: L R, LFE Sampling rate : 48.0 KHz Compression mode : Lossy Stream size : 154 MiB (16%) Title : Mafiaking Language : Hindi Default : Yes Forced : No Audio #2 ID : 3 Format : AC-3 Format/Info : Audio Coding 3 Mode extension : CM (complete main) Format settings, Endianness : Big Codec ID : A_AC3 Duration : 1h 35mn Bit rate mode : Constant Bit rate : 224 Kbps Channel(s) : 6 channels Channel positions : Front: L C R, Side: L R, LFE Sampling rate : 48.0 KHz Compression mode : Lossy Stream size : 154 MiB (16%) Title : Mafiakin Language : English Default : No Forced : No
1b8c9f.png

2dbc91.png

3dea46.png

41e43b.png

529135.png

6a4a01.png

76da09.png

893614.png

9922c1.png
*
*
*
*
*
*
 
 
 
 
 

 

 
No links available
No downloads available

Genres

Related movies

Watch Dragon ball super