Remember Me
A password will be e-mailed to you.
Please enter your username or email address. You will receive a link to create a new password via email.
Cancel
PerfectHDMovies.me

The Thief Of Bagdad (1940) 720p Blu-Ray x264 [Dual-Audio] [English 2.0 + Hindi 2.0] Esubs [PKG] 1.06 GB

The Thief of Bagdad    

NOT RATED 106 min Dual AudioDual Audio Blu-Ray 720p

7.6
IMDB: 7.6/10 8,972 votes

, , , , ,

, , ,

Won 3 Oscars. Another 1 nomination.

UK

Report error





Video
ID                          : 3
Format                      : AVC
Format/Info                 : Advanced Video Codec
Format profile              : [email protected]
Format settings, CABAC      : Yes
Format settings, ReFrames   : 4 frames
Codec ID                    : V_MPEG4/ISO/AVC
Duration                    : 1h 46mn
Bit rate                    : 1 072 Kbps
Width                       : 992 pixels
Height                      : 720 pixels
Display aspect ratio        : 1.378
Frame rate mode             : Constant
Frame rate                  : 24.000 fps
Color space                 : YUV
Chroma subsampling          : 4:2:0
Bit depth                   : 8 bits
Scan type                   : Progressive
Bits/(Pixel*Frame)          : 0.063
Stream size                 : 794 MiB (73%)
Title                       : [PKG]
Writing library             : x264 core 142 r2479 dd79a61
Default                     : Yes
Forced                      : No
Color primaries             : BT.709
Transfer characteristics    : BT.709
Matrix coefficients         : BT.709
Color range                 : Limited


Audio #1
ID                          : 1
Format                      : AC-3
Format/Info                 : Audio Coding 3
Format profile              : Dolby Digital
Mode extension              : CM (complete main)
Format settings, Endianness : Big
Codec ID                    : A_AC3
Duration                    : 1h 46mn
Bit rate mode               : Constant
Bit rate                    : 192 Kbps
Channel(s)                  : 2 channels
Channel positions           : Front: L R
Sampling rate               : 48.0 KHz
Bit depth                   : 16 bits
Compression mode            : Lossy
Stream size                 : 146 MiB (13%)
Title                       : [PKG]
Language                    : Hindi
Default                     : Yes
Forced                      : Yes


Audio #2
ID                          : 2
Format                      : AC-3
Format/Info                 : Audio Coding 3
Mode extension              : CM (complete main)
Format settings, Endianness : Big
Codec ID                    : A_AC3
Duration                    : 1h 46mn
Bit rate mode               : Constant
Bit rate                    : 160 Kbps
Channel(s)                  : 1 channel
Channel positions           : Front: C
Sampling rate               : 48.0 KHz
Bit depth                   : 16 bits
Compression mode            : Lossy
Stream size                 : 121 MiB (11%)
Title                       : [PKG]
Language                    : English
Default                     : No
Forced                      : No


TheThiefOfBagdad1940720pBlu-Rayx264Dual-AudioEnglish2.0Hindi2.0EsubsPKG.mkv_thumbs_2016.02.03_20.38.23.jpg

 

No links available
No downloads available

Genres

Related movies

Watch Dragon ball super