Remember Me
A password will be e-mailed to you.
Please enter your username or email address. You will receive a link to create a new password via email.
Cancel
PerfectHDMovies.me

The Talking of Tiger Mountain 2014 720p BluRay x264 [DualAudio][Hindi 2.0][Chinese 5.1]…Hon3y

The Taking of Tiger Mountain    

N/A 141 min HollywoodHollywood Blu-Ray 720p

6.5
IMDB: 6.5/10 1,686 votes

, , ,

9 wins & 31 nominations.

China

Report error

Screenshot_2

The Talking of Tiger Mountain 2014 720p BluRay x264 [DualAudio][Hindi 2.0][Chinese 5.1]...Hon3y

Format : Matroska
Format version : Version 4 / Version 2
File size : 1.30 GiB
Duration : 2h 23mn
Overall bit rate : 1 298 Kbps
Movie name : Hon3yHD

Video
ID : 1
Format : AVC
Format/Info : Advanced Video Codec
Format profile : [email protected]
Format settings, CABAC : Yes
Format settings, ReFrames : 5 frames
Codec ID : V_MPEG4/ISO/AVC
Duration : 2h 23mn
Bit rate : 1 006 Kbps
Width : 1 280 pixels
Height : 696 pixels
Display aspect ratio : 1.85:1
Frame rate mode : Constant
Frame rate : 23.976 (24000/1001) fps
Color space : YUV
Stream size : 1.01 GiB (78%)
Title : 3a_Str...Hon3yHD

Audio #1
ID : 2
Format : AAC
Format/Info : Advanced Audio Codec
Format profile : LC
Codec ID : A_AAC
Duration : 2h 23mn
Bit rate : 192 Kbps
Channel(s) : 2 channels
Channel positions : Front: L R
Sampling rate : 48.0 KHz
Frame rate : 46.875 fps (1024 spf)
Compression mode : Lossy
Delay relative to video : 9ms
Stream size : 197 MiB (15%)
Title : Hindi---3a_Str...Hon3yHD
Language : Hindi
Default : Yes
Forced : Yes

Audio #2
ID : 3
Format : AAC
Format/Info : Advanced Audio Codec
Format profile : LC
Codec ID : A_AAC
Duration : 2h 23mn
Bit rate : 96.0 Kbps
Channel(s) : 6 channels
Channel positions : Front: L C R, Side: L R, LFE
Sampling rate : 48.0 KHz
Frame rate : 46.875 fps (1024 spf)
Compression mode : Lossy
Delay relative to video : 9ms
Stream size : 97.9 MiB (7%)
Title : Chinese---3a_Str...Hon3yHD
Language : Chinese
Default : No
Forced : No

Menu
00:00:00.000 : en:00:00:00.000
00:10:51.232 : en:00:10:51.232
00:19:12.025 : en:00:19:12.025
00:25:58.890 : en:00:25:58.890
00:35:53.400 : en:00:35:53.400
00:46:07.054 : en:00:46:07.054
00:56:05.235 : en:00:56:05.235
01:03:09.702 : en:01:03:09.702
01:13:55.180 : en:01:13:55.180
01:22:26.483 : en:01:22:26.483
01:39:29.212 : en:01:39:29.212
01:47:33.529 : en:01:47:33.529
01:51:45.323 : en:01:51:45.323
01:59:56.771 : en:01:59:56.771
02:09:30.345 : en:02:09:30.345
02:14:43.449 : en:02:14:43.449

HAzmi5l.jpg
sreYyGa.jpg
kJYoQyu.jpg
USERSCLOUD
*
USERSFILES
*
*
*
*
GO4UP 
 
No links available
No downloads available

Genres

Related movies

Watch Dragon ball super