Remember Me
A password will be e-mailed to you.
Please enter your username or email address. You will receive a link to create a new password via email.
Cancel
PerfectHDMovies.me

The Sensuous Nurse 1975 UNRATED Dual Audio Hindi 480p DVDRip PHDM

The Sensuous Nurse    

R 105 min Dual AudioDual Audio 300MB Movies

4.9
IMDB: 4.9/10 353 votes

, , ,

N/A

Italy

Report error

The Sensuous Nurse 1975 UNRATED Dual Audio Hindi  480p DVDRip PHDM

Format : Matroska
Format version : Version 4 / Version 2
File size : 322 MiB
Duration : 1 h 40 min
Overall bit rate : 446 kb/s

Video
ID : 1
Format : AVC
Format/Info : Advanced Video Codec
Format profile : [email protected]
Format settings, CABAC : Yes
Format settings, ReFrames : 4 frames
Codec ID : V_MPEG4/ISO/AVC
Duration : 1 h 40 min
Bit rate : 380 kb/s
Width : 720 pixels
Height : 432 pixels
Display aspect ratio : 5:3
Frame rate mode : Constant
Frame rate : 23.976 (24000/1001) FPS
Color space : YUV
Chroma subsampling : 4:2:0
Bit depth : 8 bits
Scan type : Progressive
Bits/(Pixel*Frame) : 0.051
Stream size : 274 MiB (85%)
Writing library : x264 core 142 r2479 dd79a61
Default : Yes
Forced : No
Color range : Limited

Audio #1
ID : 2
Format : AAC
Format/Info : Advanced Audio Codec
Format profile : HE-AAC / LC
Codec ID : A_AAC
Duration : 1 h 40 min
Bit rate : 32.0 kb/s
Channel(s) : 2 channels
Channel positions : Front: L R
Sampling rate : 22.05 kHz / 11.025 kHz
Frame rate : 10.767 FPS (1024 spf)
Compression mode : Lossy
Delay relative to video : -229 ms
Stream size : 23.1 MiB (7%)
Title : PHDM
Language : Hindi
Default : Yes
Forced : No

Audio #2
ID : 3
Format : AAC
Format/Info : Advanced Audio Codec
Format profile : HE-AAC / LC
Codec ID : A_AAC
Duration : 1 h 40 min
Bit rate : 32.0 kb/s
Channel(s) : 2 channels
Channel positions : Front: L R
Sampling rate : 22.05 kHz / 11.025 kHz
Frame rate : 10.767 FPS (1024 spf)
Compression mode : Lossy
Delay relative to video : -229 ms
Stream size : 23.1 MiB (7%)
Title : PHDM
Language : English
Default : No
Forced : No

Text
ID : 4
Format : UTF-8
Codec ID : S_TEXT/UTF8
Codec ID/Info : UTF-8 Plain Text
Duration : 1 h 39 min
Bit rate : 53 b/s
Count of elements : 1466
Stream size : 38.6 KiB (0%)
Default : Yes
Forced : No

Menu
00:00:00.000 : :Chapter 1
00:08:12.575 : :Chapter 2
00:20:37.402 : :Chapter 3
00:22:06.199 : :Chapter 4
00:30:55.103 : :Chapter 5
00:41:50.591 : :Chapter 6
00:45:33.188 : :Chapter 7
00:57:09.968 : :Chapter 8
01:06:06.045 : :Chapter 9
01:18:00.342 : :Chapter 10
01:24:19.012 : :Chapter 11
01:38:09.175 : :Chapter 12
No links available
No downloads available

Genres

Related movies

Watch Dragon ball super