Remember Me
A password will be e-mailed to you.
Please enter your username or email address. You will receive a link to create a new password via email.
Cancel
PerfectHDMovies.me

The Replacement Killers (1998) 720p BRRip HEVC x265 [Dual-Audio][English 5.1+Hindi 2.0] [PKG] 996 MB

The Replacement Killers    

R 87 min Dual Audio Blu-Ray 720pHEVC

6.1
IMDB: 6.1/10 22,713 votes

, , ,

N/A

USA

Report error

 
Video
ID : 1
Format : HEVC
Format/Info : High Efficiency Video Coding
Codec ID : V_MPEGH/ISO/HEVC
Duration : 1h 36mn
Bit rate : 1 094 Kbps
Width : 1 280 pixels
Height : 536 pixels
Display aspect ratio : 2.40:1
Frame rate mode : Constant
Frame rate : 23.976 fps
Bits/(Pixel*Frame) : 0.067
Stream size : 752 MiB (76%)
Default : Yes
Forced : No
 
Audio #1
ID : 2
Format : AC-3
Format/Info : Audio Coding 3
Mode extension : CM (complete main)
Format settings, Endianness : Big
Codec ID : A_AC3
Duration : 1h 36mn
Bit rate mode : Constant
Bit rate : 160 Kbps
Channel(s) : 2 channels
Channel positions : Front: L R
Sampling rate : 48.0 KHz
Bit depth : 16 bits
Compression mode : Lossy
Stream size : 110 MiB (11%)
Language : Hindi
Default : Yes
Forced : No
 
Audio #2
ID : 3
Format : AC-3
Format/Info : Audio Coding 3
Mode extension : CM (complete main)
Format settings, Endianness : Big
Codec ID : A_AC3
Duration : 1h 36mn
Bit rate mode : Constant
Bit rate : 160 Kbps
Channel(s) : 6 channels
Channel positions : Front: L C R, Side: L R, LFE
Sampling rate : 48.0 KHz
Bit depth : 16 bits
Compression mode : Lossy
Stream size : 110 MiB (11%)
Language : English
Default : No
Forced : No
TheReplacementKillers1998720pBRRipHEVCx265Dual-AudioEnglish5.1Hindi2.0PKG.mkv_thumbs_2015.06.11_16.40.50.jpg

 

No links available
No downloads available

Genres

Related movies

Watch Dragon ball super