Remember Me
A password will be e-mailed to you.
Please enter your username or email address. You will receive a link to create a new password via email.
Cancel
PerfectHDMovies.me

The Pursuit Of Happyness (2006) 720p BluRay x264 [Dual Audio] [Hindi + English] – RXS 860Mb

The Pursuit of Happyness    

PG-13 117 min Dual AudioDual Audio Blu-Ray 720p

8.0
IMDB: 8.0/10 330,824 votes

, , ,

Nominated for 1 Oscar. Another 11 wins & 24 nominations.

USA

Report error

The Pursuit Of Happyness (2006) 720p BluRay x264 [Dual Audio] [Hindi + English] - RXS
The Pursuit Of Happyness (2006) 720p BluRay x264 [Dual Audio] [Hindi + English] – RXS

DETAILS

General

Format : Matroska
File size : 861 MiB
Duration : 1h 57mn
Overall bit rate : 1 025 Kbps

Video

Format/Info : Advanced Video Codec
Duration : 1h 57mn
Bit rate : 738 Kbps
Width : 1 280 pixels
Height : 528 pixels
Frame rate mode : Constant
Frame rate : 23.976 fps
Bit depth : 8 bits
Stream size : 620 MiB (72%)
Language : English
Default : Yes
Forced : No

Audio #1

Format : AAC
Format/Info : Advanced Audio Codec
Duration : 1h 57mn
Bit rate : 92.0 Kbps
Channel(s) : 2 channels
Stream size : 77.3 MiB (9%)
Language : English

Audio #2

Format : AC-3
Duration : 1h 57mn
Bit rate : 192 Kbps
Channel(s) : 2 channels
Sampling rate : 48.0 KHz
Stream size : 161 MiB (19%)
Language : Hindi

Subtitle

Codec ID : S_TEXT/UTF8
Duration : 1h 51mn
Language : English

 

No links available
No downloads available

Genres

Related movies

Watch Dragon ball super