Remember Me
A password will be e-mailed to you.
Please enter your username or email address. You will receive a link to create a new password via email.
Cancel
PerfectHDMovies.me

The Princess and the Frog (2009) 720p Blu-Ray x264 [Dual-Audio] [Hindi 5.1 + English 5.1] Esubs [PKG] ~ 950 MB

Dual AudioDual Audio Blu-Ray 720p

IMDB: /10 votes

Report error

 large_bVRHirC6uIZL9VtRqYRxdedYnOG.jpg
General
Unique ID : 194134498270023647791296613828041083465 (0x920CF1C0A380DA38879F298703378A49)
Complete name : E:\encode\The Princess and the Frog (2009) 720p Blu-Ray x264 [Dual-Audio] [Hindi 5.1 + English 5.1] Esubs [PKG]\The Princess and the Frog (2009) 720p Blu-Ray x264 [Dual-Audio] [Hindi 5.1 + English 5.1] Esubs [PKG].mkv
Format : Matroska
Format version : Version 4 / Version 2
File size : 945 MiB
Duration : 1h 37mn
Overall bit rate : 1 355 Kbps
Movie name : The Princess and the Frog (2009) 720p Blu-Ray x264 [Dual-Audio] [Hindi 5.1 + English 5.1] Esubs [PKG]
Encoded date : UTC 2016-03-14 03:59:15
Writing application : mkvmerge v8.9.0 ('Father Daughter') 64bit
Writing library : libebml v1.3.3 + libmatroska v1.4.4
DURATION : 01:37:27.712000000
NUMBER_OF_FRAMES : 182741
NUMBER_OF_BYTES : 163735936

Video
ID : 1
Format : AVC
Format/Info : Advanced Video Codec
Format profile : [email protected]
Format settings, CABAC : Yes
Format settings, ReFrames : 7 frames
Codec ID : V_MPEG4/ISO/AVC
Duration : 1h 37mn
Bit rate : 905 Kbps
Width : 1 280 pixels
Height : 720 pixels
Display aspect ratio : 16:9
Frame rate mode : Constant
Frame rate : 23.976 fps
Color space : YUV
Chroma subsampling : 4:2:0
Bit depth : 8 bits
Scan type : Progressive
Bits/(Pixel*Frame) : 0.041
Stream size : 614 MiB (65%)
Title : [PKG]
Writing library : x264 core 125 r2200 999b753
Language : English
Default : Yes
Forced : No

Audio #1
ID : 2
Format : AC-3
Format/Info : Audio Coding 3
Format profile : Dolby Digital
Mode extension : CM (complete main)
Format settings, Endianness : Big
Codec ID : A_AC3
Duration : 1h 37mn
Bit rate mode : Constant
Bit rate : 224 Kbps
Channel(s) : 2 channels
Channel positions : Front: L R
Sampling rate : 48.0 KHz
Bit depth : 16 bits
Compression mode : Lossy
Stream size : 156 MiB (17%)
Title : [PKG]
Language : Hindi
Default : Yes
Forced : Yes

Audio #2
ID : 4
Format : AC-3
Format/Info : Audio Coding 3
Mode extension : CM (complete main)
Format settings, Endianness : Big
Codec ID : A_AC3
Duration : 1h 37mn
Bit rate mode : Constant
Bit rate : 224 Kbps
Channel(s) : 2 channels
Channel positions : Front: L R
Sampling rate : 48.0 KHz
Bit depth : 16 bits
Compression mode : Lossy
Stream size : 156 MiB (17%)
Title : [PKG]
Language : English
Default : No
Forced : No
vlcsnap-2016-04-04-13h24m35s190.png
vlcsnap-2016-04-04-13h24m51s89.png
vlcsnap-2016-04-04-13h24m59s179.png
vlcsnap-2016-04-04-13h25m04s225.png
vlcsnap-2016-04-04-13h25m33s10.png
vlcsnap-2016-04-04-13h25m40s64.png
ThePrincessandtheFrog2009720pBlu-Rayx264Dual-AudioHindi5.1English5.1EsubsPKG.mkv_thumbs_2016.04.04_13.24.09.jpgThanks to MONU

*
*
*
*
 

 

No links available
No downloads available

Genres

Related movies

Watch Dragon ball super