Remember Me
A password will be e-mailed to you.
Please enter your username or email address. You will receive a link to create a new password via email.
Cancel
PerfectHDMovies.me

The Phenom 2016 1080p BluRay H264 AAC – 1.3 GB

The Phenom    

N/A 90 min HollywoodHollywood Blu-Ray 1080pUncategorized

5.4
IMDB: 5.4/10 518 votes

, , ,

N/A

USA

Report error

 

The Phenom 2016 1080p BluRay H264 AAC

The Phenom 2016 1080p BluRay H264 AAC

The.Phenom.2016.1080p.BluRay.H264.AAC.mp4


Format : MPEG-4
Format profile : Base Media
Codec ID : isom
File size : 1.33 GiB
Duration : 1h 27mn
Overall bit rate : 2 174 Kbps
Writing application : Lavf57.22.100

Video
ID : 1
Format : AVC
Format/Info : Advanced Video Codec
Format profile : [email protected]
Format settings, CABAC : Yes
Format settings, ReFrames : 4 frames
Codec ID : avc1
Codec ID/Info : Advanced Video Coding
Duration : 1h 27mn
Bit rate : 2 050 Kbps
Width : 1 920 pixels
Height : 800 pixels
Display aspect ratio : 2.40:1
Frame rate mode : Constant
Frame rate : 23.976 fps
Color space : YUV
Chroma subsampling : 4:2:0
Bit depth : 8 bits
Scan type : Progressive
Bits/(Pixel*Frame) : 0.056
Stream size : 1.25 GiB (94%)

Audio
ID : 2
Format : AAC
Format/Info : Advanced Audio Codec
Format profile : LC
Codec ID : 40
Duration : 1h 27mn
Bit rate mode : Constant
Bit rate : 119 Kbps
Channel(s) : 2 channels
Channel positions : Front: L R
Sampling rate : 48.0 KHz
Compression mode : Lossy
Stream size : 74.2 MiB (5%)
No links available
No downloads available

Genres

Related movies

Watch Dragon ball super