Remember Me
A password will be e-mailed to you.
Please enter your username or email address. You will receive a link to create a new password via email.
Cancel
PerfectHDMovies.me

The Monkey King 2014 1080p BDRip x264 Hindi DD2 0 – Hobbit007 – 3.08 Gb

The Monkey King    

N/A 90 min Dual AudioDual Audio Blu-Ray 1080p

4.7
IMDB: 4.7/10 2,880 votes

, , ,

1 win & 4 nominations.

China, Hong Kong

Report error

The Monkey King 2014 1080p BDRip x264 Hindi DD2 0 - Hobbit007 - 3.08 Gb

The Monkey King 2014 1080p BDRip x264 Hindi DD2 0 – Hobbit007

General
Format                                   : Matroska
Format version                           : Version 4 / Version 2
File size                                : 3.08 GiB
Duration                                 : 1h 59mn
Overall bit rate                         : 3 693 Kbps


Video
ID                                       : 1
Format                                   : AVC
Format/Info                              : Advanced Video Codec
Format profile                           : [email protected]
Format settings, CABAC                   : Yes
Format settings, ReFrames                : 5 frames
Codec ID                                 : V_MPEG4/ISO/AVC
Duration                                 : 1h 59mn
Bit rate                                 : 3 468 Kbps
Width                                    : 1 920 pixels
Height                                   : 800 pixels
Display aspect ratio                     : 2.40:1
Frame rate mode                          : Constant
Frame rate                               : 23.976 fps
Color space                              : YUV
Chroma subsampling                       : 4:2:0
Bit depth                                : 8 bits
Scan type                                : Progressive
Bits/(Pixel*Frame)                       : 0.094
Stream size                              : 2.83 GiB (92%)
Default                                  : Yes
Forced                                   : No
Color range                              : Limited
Color primaries                          : Generic film
Transfer characteristics                 : BT.709
Matrix coefficients                      : BT.709

Audio
ID                                       : 2
Format                                   : AC-3
Format/Info                              : Audio Coding 3
Format profile                           : Dolby Digital
Mode extension                           : CM (complete main)
Format settings, Endianness              : Big
Codec ID                                 : A_AC3
Duration                                 : 1h 59mn
Bit rate mode                            : Constant
Bit rate                                 : 224 Kbps
Channel(s)                               : 2 channels
Channel positions                        : Front: L R
Sampling rate                            : 48.0 KHz
Bit depth                                : 16 bits
Compression mode                         : Lossy
Stream size                              : 191 MiB (6%)
Language                                 : Hindi
Default                                  : Yes
Forced                                   : Yes

LETWATACH
*
*
*
USERFILES
*
*
*
*
GO4UP 
 
No links available
No downloads available

Genres

Related movies

Watch Dragon ball super