Remember Me
A password will be e-mailed to you.
Please enter your username or email address. You will receive a link to create a new password via email.
Cancel
PerfectHDMovies.me

The Martian (2015) EXTENDED CUT 720p BluRay x264 [Dual-Audio][English DD 5.1 + Hindi 2.0] – Mafiaking – M2Tv 1.4Gb

The Martian    

PG-13 144 min Dual AudioDual Audio Blu-Ray 720p

8.1
IMDB: 8.1/10 427,981 votes

, , ,

Nominated for 7 Oscars. Another 33 wins & 164 nominations.

USA, UK

Report error

The Martian (2015) EXTENDED CUT 720p BluRay x264 [Dual-Audio][English DD 5.1 + Hindi 2.0] - Mafiaking - M2Tv

The Martian (2015) EXTENDED CUT 720p BluRay x264 [Dual-Audio][English DD 5.1 + Hindi 2.0] – Mafiaking – M2Tv 1.4Gb

Ratings: 8.1/10

Genere: Adventure, Drama, Sci-Fi

General
Unique ID : 247739293457169242622116172253966381614 (0xBA60DA34BA1B890BB0EDB09C83A4322E)
Complete name : The Martian (2015) EXTENDED CUT 720p BluRay x264 [Dual-Audio][English DD 5.1 + Hindi 2.0] - Mafiaking - M2Tv.mkv
Format : Matroska
Format version : Version 4 / Version 2
File size : 1.38 GiB
Duration : 2h 31mn
Overall bit rate : 1 303 Kbps
Movie name : The Martian (2015) EXTENDED CUT 720p BluRay x264 [Dual-Audio][English DD 5.1 + Hindi 2.0] - Mafiaking - M2Tv
Encoded date : UTC 2016-06-18 18:25:43
Writing application : mkvmerge v8.3.0 ('Over the Horizon') 64bit
Writing library : libebml v1.3.1 + libmatroska v1.4.2

Video
ID : 1
Format : AVC
Format/Info : Advanced Video Codec
Format profile : [email protected]
Format settings, CABAC : Yes
Format settings, ReFrames : 3 frames
Codec ID : V_MPEG4/ISO/AVC
Duration : 2h 31mn
Bit rate : 950 Kbps
Width : 1 280 pixels
Height : 536 pixels
Display aspect ratio : 2.40:1
Frame rate mode : Constant
Frame rate : 23.976 fps
Color space : YUV
Chroma subsampling : 4:2:0
Bit depth : 8 bits
Scan type : Progressive
Bits/(Pixel*Frame) : 0.058
Stream size : 1 001 MiB (71%)
Title : Mafiaking
Language : English
Default : Yes
Forced : No

Audio #1
ID : 2
Format : MPEG Audio
Format version : Version 1
Format profile : Layer 3
Mode : Joint stereo
Mode extension : MS Stereo
Codec ID : A_MPEG/L3
Codec ID/Hint : MP3
Duration : 2h 31mn
Bit rate mode : Constant
Bit rate : 128 Kbps
Channel(s) : 2 channels
Sampling rate : 48.0 KHz
Compression mode : Lossy
Stream size : 139 MiB (10%)
Title : Mafiaking
Language : Hindi
Default : Yes
Forced : No

Audio #2
ID : 3
Format : AC-3
Format/Info : Audio Coding 3
Mode extension : CM (complete main)
Format settings, Endianness : Big
Codec ID : A_AC3
Duration : 2h 31mn
Bit rate mode : Constant
Bit rate : 224 Kbps
Channel(s) : 6 channels
Channel positions : Front: L C R, Side: L R, LFE
Sampling rate : 48.0 KHz
Compression mode : Lossy
Stream size : 242 MiB (17%)
Title : Mafiaking
Language : English
Default : No
Forced : No

Text
ID : 4
Format : UTF-8
Codec ID : S_TEXT/UTF8
Codec ID/Info : UTF-8 Plain Text
Title : Mafiaking
Language : English
Default : Yes
Forced : No
No links available
No downloads available

Genres

Related movies

Watch Dragon ball super