The Legend of Tarzan 2016 CAM ENGLISH x264 AAC – Makintos13 – 698Mb

The Legend of Tarzan 2016 CAM ENGLISH x264 AAC – Makintos13 – 698Mb
Director

The Legend of Tarzan 2016 CAM ENGLISH x264 AAC - Makintos13

The Legend of Tarzan 2016 CAM ENGLISH x264 AAC – Makintos13 – 698Mb


Format : Matroska
Format version : Version 4 / Version 2
File size : 699 MiB
Duration : 1h 39mn
Overall bit rate : 979 Kbps

Video
ID : 2
Format : AVC
Format/Info : Advanced Video Codec
Format profile : [email protected]
Format settings, CABAC : Yes
Format settings, ReFrames : 4 frames
Codec ID : V_MPEG4/ISO/AVC
Duration : 1h 39mn
Bit rate : 912 Kbps
Width : 720 pixels
Height : 480 pixels
Display aspect ratio : 3:2
Frame rate mode : Constant
Frame rate : 23.976 (24000/1001) fps
Color space : YUV
Chroma subsampling : 4:2:0
Bit depth : 8 bits
Scan type : Progressive
Bits/(Pixel*Frame) : 0.110
Stream size : 651 MiB (93%)
Default : Yes
Forced : No

Audio
ID : 1
Format : AAC
Format/Info : Advanced Audio Codec
Format profile : LC
Codec ID : A_AAC
Duration : 1h 39mn
Bit rate : 64.4 Kbps
Channel(s) : 2 channels
Channel positions : Front: L R
Sampling rate : 48.0 KHz
Frame rate : 46.875 fps (1024 spf)
Compression mode : Lossy
Delay relative to video : 62ms
Stream size : 46.0 MiB (7%)
Title : Stereo
Default : Yes
Forced : No

www.imdb.com/title/tt0918940/

 

Advertising

Jul 3, 2016 - Posted by Kartik -

Comments are closed.