Remember Me
A password will be e-mailed to you.
Please enter your username or email address. You will receive a link to create a new password via email.
Cancel
PerfectHDMovies.me

The Legend of Tarzan 2016 720p WEBRIP X264 AC3-ZEUS – 2 GB

The Legend of Tarzan    

PG-13 110 min HollywoodHollywood WEB-DL 720p

6.5
IMDB: 6.5/10 50,627 votes

, , ,

N/A

USA, UK, Canada

Report error

The Legend of Tarzan 2016 720p WEBRIP X264 AC3-ZEUS

The Legend of Tarzan 2016 720p WEBRIP X264 AC3-ZEUS

INFO:
Format: Matroska
Format version: Version 2
File size: 1.92 GiB
Duration: 1h 49mn
Overall bit rate: 2 501 Kbps

Video
ID: 1
Format: AVC
Format/Info: Advanced Video Codec
Format profile: [email protected]
Format settings, CABAC: Yes
Format settings, ReFrames: 4 frames
Codec ID: V_MPEG4/ISO/AVC
Duration: 1h 49mn
Bit rate: 2 051 Kbps
Width: 1 280 pixels
Height: 528 pixels
Display aspect ratio: 2.40:1
Frame rate mode: Constant
Frame rate: 29.970 (30000/1001) fps
Color space: YUV
Chroma subsampling: 4:2:0
Bit depth: 8 bits
Scan type: Progressive
Bits/(Pixel*Frame): 0.101
Stream size: 1.57 GiB (82%)
Default: Yes
Forced: No

Audio
ID: 2
Format: AC-3
Format/Info: Audio Coding 3
Mode extension: CM (complete main)
Format settings, Endianness: Big
Codec ID: A_AC3
Duration: 1h 49mn
Bit rate mode: Constant
Bit rate: 448 Kbps
Channel(s): 2 channels
Channel positions: Front: L R
Sampling rate: 48.0 KHz
Frame rate: 31.250 fps (1536 spf)
Compression mode: Lossy
Stream size: 352 MiB (18%)
Language: English
Default: Yes
IMDB:http://www.imdb.com/title/tt0918940/
No links available
No downloads available

Genres

Related movies

Watch Dragon ball super