Remember Me
A password will be e-mailed to you.
Please enter your username or email address. You will receive a link to create a new password via email.
Cancel
PerfectHDMovies.me

The.Legend.Of.Tarzan.(2016).720p.Bluray.Rip.x.264.[Hindi.5.1.+.English.5.1].Original 1.47 GiB

Dual AudioDual Audio Blu-Ray 720p

IMDB: /10 votes

Report error

The.Legend.Of.Tarzan.(2016).720p.Bluray.Rip.x.264.[Hindi.5.1.+.English.5.1].Original

The.Legend.Of.Tarzan.(2016).720p.Bluray.Rip.x.264.[Hindi.5.1.+.English.5.1].Original

Format : Matroska 
Format version : Version 4 / Version 2 
File size : 1.47 GiB 
Duration : 1 h 49 min 
Overall bit rate : 1 916 kb/s 
Encoded date : UTC 2016-10-22 16:02:03 / UTC 2016-10-16T18:37:50Z 
Writing application : mkvmerge v9.2.0 ('Photograph') 32bit 
Writing library : libebml v1.3.3 + libmatroska v1.4.4 / Lavf55.12.0 

Video 
ID : 1 
Format : AVC 
Format/Info : Advanced Video Codec 
Format profile : [email protected] 
Format settings, CABAC : Yes 
Format settings, ReFrames : 12 frames 
Codec ID : V_MPEG4/ISO/AVC 
Duration : 1 h 49 min 
Bit rate : 1 500 kb/s 
Width : 1 280 pixels 
Height : 534 pixels 
Display aspect ratio : 2.40:1 
Frame rate mode : Constant 
Frame rate : 23.976 (24000/1001) FPS 
Color space : YUV 
Chroma subsampling : 4:2:0 
Bit depth : 8 bits 
Scan type : Progressive 
Bits/(Pixel*Frame) : 0.092 
Stream size : 1.12 GiB (76%) 
Writing library : x264 core 142 r2479 dd79a61 
Default : Yes 
Forced : No 
Color range : Limited 
Color primaries : BT.709 
Transfer characteristics : BT.709 
Matrix coefficients : BT.709 
Statistics Tags Issue : mkvmerge v9.2.0 ('Photograph') 32bit 2016-10-22 16:02:03 / mkvmerge v9.2.0 ('Photograph') 32bit 2016-10-22 16:02:03 / UTC 2016-10-16T18:37:50Z 
FromStats_BitRate : 1498541 
FromStats_Duration : 01:49:58.676000000 
FromStats_FrameCount : 158210 
FromStats_StreamSize : 1236048734 

Audio #1 
ID : 2 
Format : AC-3 
Format/Info : Audio Coding 3 
Mode extension : CM (complete main) 
Format settings, Endianness : Big 
Codec ID : A_AC3 
Duration : 1 h 49 min 
Bit rate mode : Constant 
Bit rate : 224 kb/s 
Channel(s) : 6 channels 
Channel positions : Front: L C R, Side: L R, LFE 
Sampling rate : 48.0 kHz 
Frame rate : 31.250 FPS (1536 spf) 
Compression mode : Lossy 
Delay relative to video : -5 ms 
Stream size : 176 MiB (12%) 
Title : Surround 
Language : English 
Default : Yes 
Forced : No 
Statistics Tags Issue : mkvmerge v9.2.0 ('Photograph') 32bit 2016-10-22 16:02:03 / mkvmerge v9.2.0 ('Photograph') 32bit 2016-10-22 16:02:03 / UTC 2016-10-16T18:37:50Z 
FromStats_BitRate : 224000 
FromStats_Duration : 01:49:58.848000000 
FromStats_FrameCount : 206214 
FromStats_StreamSize : 184767744 

Audio #2 
ID : 3 
Format : AC-3 
Format/Info : Audio Coding 3 
Mode extension : CM (complete main) 
Format settings, Endianness : Big 
Codec ID : A_AC3 
Duration : 1 h 49 min 
Bit rate mode : Constant 
Bit rate : 192 kb/s 
Channel(s) : 6 channels 
Channel positions : Front: L C R, Side: L R, LFE 
Sampling rate : 48.0 kHz 
Frame rate : 31.250 FPS (1536 spf) 
Compression mode : Lossy 
Delay relative to video : -83 ms 
Stream size : 151 MiB (10%) 
Title : Hindi 
Default : No 
Forced : No 
Statistics Tags Issue : mkvmerge v9.2.0 ('Photograph') 32bit 2016-10-22 16:02:03 / mkvmerge v9.2.0 ('Photograph') 32bit 2016-10-22 16:02:03 / UTC 2016-10-16T18:37:50Z 
FromStats_BitRate : 192000 
FromStats_Duration : 01:49:58.912000000 
FromStats_FrameCount : 206216 
FromStats_StreamSize : 158373888 

Menu 
00:00:00.000 : :Chapter 1 
00:10:56.364 : :Chapter 2 
00:20:47.371 : :Chapter 3 
00:28:26.413 : :Chapter 4 
00:40:49.405 : :Chapter 5 
00:51:03.435 : :Chapter 6 
01:01:15.421 : :Chapter 7 
01:10:22.760 : :Chapter 8 
01:20:58.270 : :Chapter 9 
01:29:09.469 : :Chapter 10 
01:42:06.745 : :Chapter 11 

SCREENSHOTS


     

wo

*
*
FLASHSX
*
LETWATCH
dl
No links available
No downloads available

Genres

Related movies

Watch Dragon ball super