Remember Me
A password will be e-mailed to you.
Please enter your username or email address. You will receive a link to create a new password via email.
Cancel
PerfectHDMovies.me

The Jungle Book 2016 HD-TC x264-UNiQUE1.42 GiB

The Jungle Book    

PG 105 min HollywoodHollywood Pre-Releases (Latest)

8.1
IMDB: 8.1/10 15,127 votes

, , , , , , ,

N/A

USA

Report error

The Jungle Book 2016 HD-TC x264-UNiQUE - PerfectHDMovies

Format : Matroska
File size : 1.42 GiB
Duration : 1h 45mn
Overall bit rate : 1 927 Kbps

Video
ID : 1
Format : AVC
Format/Info : Advanced Video Codec
Format profile : [email protected]
Format settings, CABAC : Yes
Format settings, ReFrames : 4 frames
Codec ID : V_MPEG4/ISO/AVC
Duration : 1h 45mn
Bit rate : 1 800 Kbps
Width : 720 pixels
Height : 384 pixels
Display aspect ratio : 1.85:1
Frame rate mode : Constant
Frame rate : 23.976 (24000/1001) fps
Color space : YUV
Chroma subsampling : 4:2:0
Bit depth : 8 bits
Scan type : Progressive
Bits/(Pixel*Frame) : 0.272
Stream size : 1.33 GiB (93%)


Audio
ID : 2
Format : MPEG Audio
Format version : Version 1
Format profile : Layer 3
Codec ID : A_MPEG/L3
Codec ID/Hint : MP3
Duration : 1h 45mn
Bit rate mode : Constant
Bit rate : 128 Kbps
Channel(s) : 2 channels
Sampling rate : 44.1 KHz
Frame rate : 38.281 fps (1152 spf)
Compression mode : Lossy
Delay relative to video : 1s 600ms
Stream size : 96.7 MiB (7%)
Default : Yes
Forced : No


Source
Video:720pTCmp4ba
Audio: CPG
 .
LETWATACH
*
USERSFILES
*
*
*
*
GO4UP 
 

 

The Jungle Book 2016 HD-TC x264-UNiQUE1.42 GiB
The Jungle Book 2016 HD-TC x264-UNiQUE1.42 GiB
The Jungle Book 2016 HD-TC x264-UNiQUE1.42 GiB
The Jungle Book 2016 HD-TC x264-UNiQUE1.42 GiB
The Jungle Book 2016 HD-TC x264-UNiQUE1.42 GiB
The Jungle Book 2016 HD-TC x264-UNiQUE1.42 GiB
The Jungle Book 2016 HD-TC x264-UNiQUE1.42 GiB
The Jungle Book 2016 HD-TC x264-UNiQUE1.42 GiB
The Jungle Book 2016 HD-TC x264-UNiQUE1.42 GiB
The Jungle Book 2016 HD-TC x264-UNiQUE1.42 GiB
No links available
No downloads available

Genres

Related movies

Watch Dragon ball super