Remember Me
A password will be e-mailed to you.
Please enter your username or email address. You will receive a link to create a new password via email.
Cancel
PerfectHDMovies.me

The Jungle Book – 1967 – HD – 1080p – Hon3yHD 1.6Gb

HollywoodHollywood Blu-Ray 1080p

7.6
IMDB: 7.6/10 votes

, ,

Report error

The Jungle Book - 1967 - HD - 1080p - Hon3yHD

The Jungle Book – 1967 – HD – 1080p – Hon3yHD 1.6Gb

General
Complete name : The Jungle Book - 1967 -HD - 1080p - Hon3yHD
Format : MPEG-4
Format profile : Base Media / Version 2
Codec ID : mp42 (isom/iso2/avc1/mp41)
File size : 1.63 GiB
Duration : 1h 18mn
Overall bit rate mode : Variable
Overall bit rate : 2 965 Kbps

Video
ID : 1
Format : AVC
Format/Info : Advanced Video Codec
Format profile : [email protected]
Format settings, CABAC : Yes
Format settings, ReFrames : 4 frames
Codec ID : avc1
Codec ID/Info : Advanced Video Coding
Duration : 1h 18mn
Bit rate : 2 799 Kbps
Width : 1 920 pixels
Height : 1 080 pixels
Display aspect ratio : 16:9
Frame rate mode : Variable
Frame rate : 23.976 (24000/1001) fps
Minimum frame rate : 23.974 fps
Maximum frame rate : 23.981 fps
Color space : YUV
Chroma subsampling : 4:2:0
Bit depth : 8 bits
Scan type : Progressive
Bits/(Pixel*Frame) : 0.056
Stream size : 1.54 GiB (94%)
Writing library : x264 core 142 r2479 dd79a61
Color range : Limited
Color primaries : BT.709
Transfer characteristics : BT.709
Matrix coefficients : BT.709

Audio
ID : 2
Format : AAC
Format/Info : Advanced Audio Codec
Format profile : LC
Codec ID : 40
Duration : 1h 18mn
Bit rate mode : Variable
Bit rate : 159 Kbps
Channel(s) : 2 channels
Channel positions : Front: L R
Sampling rate : 48.0 KHz
Frame rate : 46.875 fps (1024 spf)
Compression mode : Lossy
Stream size : 89.5 MiB (5%)
Title : Stereo / Stereo
Language : English
Default : Yes
Alternate group : 1
No links available
No downloads available

Genres

Related movies

Watch Dragon ball super