Remember Me
A password will be e-mailed to you.
Please enter your username or email address. You will receive a link to create a new password via email.
Cancel
PerfectHDMovies.me

The Hunger Games: Mockingjay – Part 2 2015 HD-TS XVID AC3 HQ Hive-CM8 1.72 GB

The Hunger Games: Mockingjay - Part 2    

PG-13 137 min HollywoodHollywood Pre-Releases (Latest)

8.1
IMDB: 8.1/10 712 votes

, , ,

N/A

USA

Report error




Info :




http://www.imdb.com/title/tt1951266/




As the war of Panem escalates to the destruction of other districts by the Capitol, Katniss Everdeen, the reluctant leader of the rebellion, must bring together an army against President Snow, while all she holds dear hangs in the balance.


Director: Francis Lawrence
Writers: Peter Craig (screenplay), Danny Strong (screenplay)
Stars: Jennifer Lawrence, Josh Hutcherson, Liam Hemsworth
Genres: Adventure | Sci-Fi
Country: USA
Language: English




The.Hunger.Games-Mockingjay.Part.2.2015.HD-TS.XVID.AC3.HQ.Hive-CM8


Thx Hive


CM8 Doing It Right The First Time


Sources:


Video: Italian 1080p Incoming


Audio: Sweet Line Big Thx to S4NDM4N
big thx guys


Notes:


Very nice quality video as usual,no movements, no flicker, was cammed a bit too much to the right side, but will do just fine


Encode:


Movie had cpl darker scenes and daylight were already perfect so i had to cut movie in 20 pieces and adjust brightness and contrast
as well as colours as needed. Movie itself is complete just no rolling endcredits.


Audio as usual a nice line from S4NDM4N, just first 3mins have some slight distortions here and theire,the rest is just fine.




got very nice
will do me till retail
enjoy


SORRY WAYNE PLEASE COME BACK LOL


Video: 720×400 @bitrate 1700 2pass
Audio: English Stereo Line 2.0
Sample: yes included




http://www.imdb.com/title/tt1951266/






General
Complete name : The.Hunger.Games-Mockingjay.Part.2.2015.HD-TS.XVID.AC3.HQ.Hive-CM8.avi
Format : AVI
Format/Info : Audio Video Interleave
File size : 1.72 GiB
Duration : 2h 5mn
Overall bit rate : 1 967 Kbps
Writing application : Nandub v1.0rc2
Writing library : Nandub build 1853/release


Video
ID : 0
Format : MPEG-4 Visual
Format profile : Advanced [email protected]
Format settings, BVOP : 2
Format settings, QPel : Yes
Format settings, GMC : No warppoints
Format settings, Matrix : Default (H.263)
Muxing mode : Packed bitstream
Codec ID : XVID
Codec ID/Hint : XviD
Duration : 2h 5mn
Bit rate : 1 699 Kbps
Width : 720 pixels
Height : 400 pixels
Display aspect ratio : 16:9
Frame rate : 29.970 fps
Color space : YUV
Chroma subsampling : 4:2:0
Bit depth : 8 bits
Scan type : Progressive
Compression mode : Lossy
Bits/(Pixel*Frame) : 0.197
Stream size : 1.49 GiB (86%)
Writing library : XviD 1.2.1 (UTC 2008-12-04)


Audio
ID : 1
Format : AC-3
Format/Info : Audio Coding 3
Codec ID : 2000
Duration : 2h 5mn
Bit rate mode : Constant
Bit rate : 256 Kbps
Channel(s) : 2 channels
Sampling rate : 48.0 KHz
Compression mode : Lossy
Stream size : 229 MiB (13%)
Alignment : Split accross interleaves
Interleave, duration : 33 ms (1.00 video frame)
Interleave, preload duration : 500 ms

 


 




AWWjKC.th.png FpKHtl.th.png FvGYea.th.png GCIT61.th.png H4okRH.th.png kn5rX5.th.png


*
*
*
*
USERSCLOUD
*
*
*
*
*
*

 

No links available
No downloads available

Genres

Related movies

Watch Dragon ball super