Remember Me
A password will be e-mailed to you.
Please enter your username or email address. You will receive a link to create a new password via email.
Cancel
PerfectHDMovies.me

The Hobbit The Battle of the Five Armies (2014) 720p Blu-Ray x264[Dual-Audio][English BD 5.1 + Hindi BD 5.1] – Mafiaking – Team M2Tv

NO    

NO NO Dual AudioDual Audio Blu-Ray 720p

7.5
IMDB: 7.5/10 NO votes

NO

Report error

102780_front The Hobbit The Battle of the Five Armies (2014) 720p Blu-Ray x264[Dual-Audio][English BD 5.1 + Hindi BD 5.1] - Mafiaking - Team M2Tv

The Hobbit The Battle of the Five Armies (2014) 720p Blu-Ray x264[Dual-Audio][English BD 5.1 + Hindi BD 5.1] – Mafiaking – Team M2Tv

http://www.imdb.com/title/tt2310332/
Ratings: 7.6/10
GENRE: Adventure, Fantasy

General
Format : Matroska
Format version : Version 4 / Version 2
File size : 1.36 GiB
Duration : 2h 24mn
Overall bit rate : 1 350 Kbps

Video
ID : 1
Format : AVC
Format/Info : Advanced Video Codec
Format profile : [email protected]
Format settings, CABAC : Yes
Format settings, ReFrames : 4 frames
Codec ID : V_MPEG4/ISO/AVC
Duration : 2h 24mn
Bit rate : 900 Kbps
Width : 1 280 pixels
Height : 536 pixels
Display aspect ratio : 2.40:1
Frame rate mode : Constant
Frame rate : 23.976 fps
Color space : YUV
Chroma subsampling : 4:2:0
Bit depth : 8 bits
Scan type : Progressive
Bits/(Pixel*Frame) : 0.055
Stream size : 904 MiB (65%)
Title : Mafiaking
Language : English
Default : Yes
Forced : No


Audio #1
ID : 2
Format : AC-3
Format/Info : Audio Coding 3
Mode extension : CM (complete main)
Format settings, Endianness : Big
Codec ID : A_AC3
Duration : 2h 24mn
Bit rate mode : Constant
Bit rate : 224 Kbps
Channel(s) : 6 channels
Channel positions : Front: L C R, Side: L R, LFE
Sampling rate : 48.0 KHz
Bit depth : 16 bits
Compression mode : Lossy
Stream size : 231 MiB (17%)
Title : Mafiaking
Language : Hindi
Default : Yes
Forced : No


Audio #2
ID : 3
Format : AC-3
Format/Info : Audio Coding 3
Mode extension : CM (complete main)
Format settings, Endianness : Big
Codec ID : A_AC3
Duration : 2h 24mn
Bit rate mode : Constant
Bit rate : 224 Kbps
Channel(s) : 6 channels
Channel positions : Front: L C R, Side: L R, LFE
Sampling rate : 48.0 KHz
Bit depth : 16 bits
Compression mode : Lossy
Stream size : 231 MiB (17%)
Title : Mafiaking
Language : English
Default : No
Forced : No
No links available
No downloads available

Genres

Related movies

Watch Dragon ball super