Remember Me
A password will be e-mailed to you.
Please enter your username or email address. You will receive a link to create a new password via email.
Cancel
PerfectHDMovies.me

The Good Dinosaur {2015} CAM XVID MP3-MURD3R 1.16 GB

The Good Dinosaur    

PG 100 min HollywoodHollywood Pre-Releases (Latest)

7.7
IMDB: 7.7/10 260 votes

, , ,

N/A

USA

Report error

 





Info :

http://www.imdb.com/title/tt1979388/


V2 ..The Good Dinosaur {2015} CAM XVID MP3-MURD3R


NFO: NO WATERMARKS …TWEAKED AUDIO…ECT….:)


Format : AVI
Format/Info : Audio Video Interleave
File size : 1.16 GiB
Duration : 1h 25mn
Overall bit rate : 1 940 Kbps
Writing library : VirtualDub build 35491/release


Video
ID : 0
Format : MPEG-4 Visual
Format profile : Advanced [email protected]
Format settings, BVOP : 2
Format settings, QPel : No
Format settings, GMC : No warppoints
Format settings, Matrix : Default (H.263)
Muxing mode : Packed bitstream
Codec ID : XVID
Codec ID/Hint : XviD
Duration : 1h 25mn
Bit rate : 1 834 Kbps
Width : 640 pixels
Height : 340 pixels
Display aspect ratio : 1.882
Frame rate : 23.976 fps
Color space : YUV
Chroma subsampling : 4:2:0
Bit depth : 8 bits
Scan type : Progressive
Compression mode : Lossy
Bits/(Pixel*Frame) : 0.352
Stream size : 1.10 GiB (95%)
Writing library : XviD 67


Audio : UnKnOwN…TY
ID : 1
Format : MPEG Audio
Format version : Version 1
Format profile : Layer 3
Codec ID : 55
Codec ID/Hint : MP3
Duration : 1h 25mn
Bit rate mode : Constant
Bit rate : 96.0 Kbps
Channel(s) : 2 channels
Sampling rate : 32.0 KHz
Compression mode : Lossy
Stream size : 59.0 MiB (5%)
Alignment : Aligned on interleaves
Interleave, duration : 36 ms (0.86 video frame)
Interleave, preload duratio : 378 ms

Writing library : LAMELAME_MAJOR_VERSI


 



TheGoodDinosaur2015CAMXVIDMP3-MURD3R.avi_thumbs_2015.11.30_13.31.09.jpg



*
*
*
*
*
USERSFILES
*
*
*
*
*

 

No links available
No downloads available

Genres

Related movies

Watch Dragon ball super