Remember Me
A password will be e-mailed to you.
Please enter your username or email address. You will receive a link to create a new password via email.
Cancel
PerfectHDMovies.me

The Girl With The Dragon Tattoo(2011)[1080p][Hindi Audio Only][Dzrg Torrents] ~ 3.50 GB

The Girl with the Dragon Tattoo    

R 158 min Dual AudioDual Audio Blu-Ray 1080p

7.8
IMDB: 7.8/10 322,176 votes

, , ,

Won 1 Oscar. Another 25 wins & 81 nominations.

USA, Sweden, Norway

Report error

 
Info
Format : Matroska
Format version : Version 4 / Version 2
File size : 3.50 GiB
Duration : 2h 38mn
Overall bit rate mode : Variable
Overall bit rate : 3 166 Kbps
Encoded date : UTC 2016-04-18 09:14:20
Writing application : mkvmerge v9.0.1 ('Obstacles') 64bit
Writing library : libebml v1.3.3 + libmatroska v1.4.4

Video


Video
ID : 1
Format : AVC
Codec ID : V_MPEG4/ISO/AVC
Duration : 2h 38mn
Bit rate mode : Variable
Bit rate : 2 720 Kbps
Maximum bit rate : 25.0 Mbps
Width : 1 920 pixels
Height : 800 pixels
Display aspect ratio : 2.40:1
Frame rate mode : Constant
Frame rate : 23.976 (24000/1001) fps
Color space : YUV
Chroma subsampling : 4:2:0
Bit depth : 8 bits
Scan type : Progressive
Bits/(Pixel*Frame) : 0.074

Audio


Audio
ID : 2
Format : AC-3
Codec ID : A_AC3
Duration : 2h 38mn
Bit rate mode : Constant
Bit rate : 448 Kbps
Channel(s) : 6 channels
Channel positions : Front: L C R, Side: L R, LFE
Sampling rate : 48.0 KHz
Frame rate : 31.250 fps (1536 spf)
Compression mode : Lossy
Stream size : 496 MiB (14%)
Title : Dzrg Torrents
Language : Hindi
Default : Yes
Forced : No

Sub

Text
ID : 3
Format : VobSub
Muxing mode : zlib
Codec ID : S_VOBSUB
Codec ID/Info : Picture based subtitle format used on DVDs
Duration : 2h 31mn
Bit rate : 6 041 bps
Count of elements : 1729
Stream size : 6.55 MiB (0%)
Title : Dzrg Torrents
Language : Hindi
Default : Yes
Forced : No

Special Thanks To tayyab93 Hindi Audio Source
 SS
LETWATACH
*
*
USERSFILES
*
*
*
JHEBERG
*
GO4UP 
 

 

No links available
No downloads available

Genres

Related movies

Watch Dragon ball super