Remember Me
A password will be e-mailed to you.
Please enter your username or email address. You will receive a link to create a new password via email.
Cancel
PerfectHDMovies.me

The Boy 2016 TS HQ XviD-PARS 1.2 GB

The Boy    

PG-13 97 min HollywoodHollywood Pre-Releases (Latest)

6.6
IMDB: 6.6/10 2,800 votes

, , ,

N/A

USA, China, Canada

Report error

IMDB : http://www.imdb.com/title/tt3882082

Format                      : Matroska
Format version              : Version 4 / Version 2
File size                   : 1.23 GiB
Duration                    : 1h 28mn
Overall bit rate            : 1 992 Kbps
Encoded date                : UTC 2016-02-01 21:12:32
Writing application         : mkvmerge v8.8.0 (‘Wind at my back’) 64bit
Writing library             : libebml v1.3.3 + libmatroska v1.4.4

Video
ID                          : 1
Format                      : MPEG-4 Visual
Format profile              : Advanced [email protected]
Format settings, BVOP       : 1
Format settings, QPel       : No
Format settings, GMC        : No warppoints
Format settings, Matrix     : Default (H.263)
Muxing mode                 : Packed bitstream
Codec ID                    : V_MS/VFW/FOURCC / XVID
Codec ID/Hint               : XviD
Duration                    : 1h 28mn
Bit rate                    : 1 798 Kbps
Width                       : 720 pixels
Height                      : 320 pixels
Display aspect ratio        : 2.25:1
Frame rate mode             : Constant
Frame rate                  : 23.976 (24000/1001) fps
Color space                 : YUV
Chroma subsampling          : 4:2:0
Bit depth                   : 8 bits
Scan type                   : Progressive
Compression mode            : Lossy
Bits/(Pixel*Frame)          : 0.326
Stream size                 : 1.11 GiB (90%)
Writing library             : XviD 1.2.1 (UTC 2008-12-04)
Language                    : English
Default                     : Yes
Forced                      : No

Audio
ID                          : 2
Format                      : AC-3
Format/Info                 : Audio Coding 3
Mode extension              : CM (complete main)
Format settings, Endianness : Big
Codec ID                    : A_AC3
Duration                    : 1h 28mn
Bit rate mode               : Constant
Bit rate                    : 192 Kbps
Channel(s)                  : 2 channels
Channel positions           : Front: L R
Sampling rate               : 48.0 KHz
Frame rate                  : 31.250 fps (1536 spf)
Compression mode            : Lossy
Stream size                 : 122 MiB (10%)
Language                    : English
Default                     : Yes
Forced                      : No

 

 

 

*
*
*
*
*
No links available
No downloads available

Genres

Related movies

Watch Dragon ball super