Remember Me
A password will be e-mailed to you.
Please enter your username or email address. You will receive a link to create a new password via email.
Cancel
PerfectHDMovies.me

The Angry Birds Movie 2016 BluRay 1080p x264 Dual Audio [Hindi-English] DD 5.1…Hon3y 4.53 GiB

The Angry Birds Movie    

PG 97 min Dual AudioDual Audio Blu-Ray 1080p

6.3
IMDB: 6.3/10 27,082 votes

,

, , ,

1 nomination.

USA, Finland

Report error

The Angry Birds Movie 2016 BluRay 1080p x264 Dual Audio [Hindi-English] DD 5.1...Hon3y

The Angry Birds Movie 2016 BluRay 1080p x264 Dual Audio [Hindi-English] DD 5.1…Hon3y

General
Format                      : Matroska
Format version              : Version 4 / Version 2
File size                   : 4.53 GiB
Duration                    : 1 h 37 min
Overall bit rate            : 6 671 kb/s

Video
Format                      : AVC
Format/Info                 : Advanced Video Codec
Format profile              : [email protected]
Format settings, CABAC      : Yes
Format settings, ReFrames   : 4 frames
Codec ID                    : V_MPEG4/ISO/AVC
Duration                    : 1 h 37 min
Bit rate                    : 5 349 kb/s
Width                       : 1 920 pixels
Height                      : 1 040 pixels
Display aspect ratio        : 1.85:1
Frame rate mode             : Constant
Frame rate                  : 23.976 (24000/1001) FPS
Color space                 : YUV
Chroma subsampling          : 4:2:0
Bit depth                   : 8 bits
Scan type                   : Progressive
Bits/(Pixel*Frame)          : 0.112
Stream size                 : 3.63 GiB (80%)
Title                       : [email protected]

Audio 1
Format                      : AC-3
Format/Info                 : Audio Coding 3
Mode extension              : CM (complete main)
Format settings, Endianness : Big
Codec ID                    : A_AC3
Duration                    : 1 h 37 min
Bit rate mode               : Constant
Bit rate                    : 640 kb/s
Channel(s)                  : 6 channels
Channel positions           : Front: L C R, Side: L R, LFE
Sampling rate               : 48.0 kHz
Frame rate                  : 31.250 FPS (1536 spf)
Compression mode            : Lossy
Stream size                 : 445 MiB (10%)
Title                       : [email protected]
Language                    : Hindi
Default                     : Yes
Forced                      : Yes

Audio 2
Format                      : AC-3
Format/Info                 : Audio Coding 3
Mode extension              : CM (complete main)
Format settings, Endianness : Big
Codec ID                    : A_AC3
Duration                    : 1 h 37 min
Bit rate mode               : Constant
Bit rate                    : 640 kb/s
Channel(s)                  : 6 channels
Channel positions           : Front: L C R, Side: L R, LFE
Sampling rate               : 48.0 kHz
Frame rate                  : 31.250 FPS (1536 spf)
Compression mode            : Lossy
Stream size                 : 445 MiB (10%)
Title                       : [email protected]
Language                    : English
Default                     : No

 
The Angry Birds Movie 2016 BluRay 1080p x264 Dual Audio [Hindi-English] DD 5.1...Hon3yThe Angry Birds Movie 2016 BluRay 1080p x264 Dual Audio [Hindi-English] DD 5.1...Hon3yThe Angry Birds Movie 2016 BluRay 1080p x264 Dual Audio [Hindi-English] DD 5.1...Hon3y
LETWATACH
*
*
VODLOCKER
*
*
*
*
*
GO4UP 
 
No links available
No downloads available

Genres

Related movies

Watch Dragon ball super