Remember Me
A password will be e-mailed to you.
Please enter your username or email address. You will receive a link to create a new password via email.
Cancel
PerfectHDMovies.me

Thadaka 2016 (Hindi) Untouched 1080p x264 AVC AAC ESubs-Hon3y 2.86 GiB

Tadakha    

N/A 147 min South DubbedSouth Dubbed WEB-DL 1080p

5.9
IMDB: 5.9/10 190 votes

, , ,

1 win.

India

Report error

Thadaka 2016 (Hindi) Untouched 1080p x264 AVC AAC ESubs-Hon3y

Thadaka 2016 (Hindi) Untouched 1080p x264 AVC AAC ESubs-Hon3y

Source                      : Hon3yHD

Format                      : MPEG-4
Format profile              : Base Media
Codec ID                    : isom (isom/iso2/avc1/mp41)
File size                   : 2.86 GiB
Duration                    : 2h 5mn
Overall bit rate            : 3 277 Kbps

Video
ID                          : 1
Format                      : AVC
Format/Info                 : Advanced Video Codec
Format profile              : [email protected]
Format settings, CABAC      : Yes
Format settings, ReFrames   : 2 frames
Codec ID                    : avc1
Codec ID/Info               : Advanced Video Coding
Duration                    : 2h 5mn
Bit rate                    : 3 145 Kbps
Width                       : 1 920 pixels
Height                      : 1 080 pixels
Display aspect ratio        : 16:9
Frame rate mode             : Constant
Frame rate                  : 25.000 fps
Color space                 : YUV
Chroma subsampling          : 4:2:0
Bit depth                   : 8 bits
Scan type                   : Progressive
Bits/(Pixel*Frame)          : 0.061
Stream size                 : 2.75 GiB (96%)

Audio
ID                          : 2
Format                      : AAC
Format/Info                 : Advanced Audio Codec
Format profile              : LC
Codec ID                    : 40
Duration                    : 2h 5mn
Bit rate mode               : Constant
Bit rate                    : 126 Kbps
Channel(s)                  : 2 channels
Channel positions           : Front: L R
Sampling rate               : 44.1 KHz
Frame rate                  : 43.066 fps (1024 spf)
Compression mode            : Lossy
Stream size                 : 112 MiB (4%)
Default                     : Yes
Alternate group             : 1

 
Thadaka 2016 (Hindi) Untouched 1080p x264 AVC AAC ESubs-Hon3yThadaka 2016 (Hindi) Untouched 1080p x264 AVC AAC ESubs-Hon3yThadaka 2016 (Hindi) Untouched 1080p x264 AVC AAC ESubs-Hon3y

LETWATACH
*
*
*
USERFILES
*
*
*
*
GO4UP 

No links available
No downloads available

Genres

Related movies

Watch Dragon ball super