Remember Me
A password will be e-mailed to you.
Please enter your username or email address. You will receive a link to create a new password via email.
Cancel
PerfectHDMovies.me

Tera Surroor (2016) – 1CD – DVD-Rip – Hindi – x264 – MP3 – Mafiaking – M2Tv [700 MB]

Teraa Surroor    

N/A 106 min BollywoodBollywood 1CD DVDRip

3.4
IMDB: 3.4/10 386 votes

N/A

India

Report error

mv5bn2jhy2m3y2qtzmmxoc00ywviltkyntctyti3mmrjmtqxyjcxxkeyxkfqcgdeqxvynte0mdc0ntm-_v1_uy268_cr10182268_al_
General
Unique ID : 204247476171712388485122526972682175662 (0x99A8A20F121EFA398DC4646F351404AE)
Complete name : Tera Surroor (2016) - 1CD - DVD-Rip - Hindi - x264 - MP3 - Mafiaking - M2Tv.mkv
Format : Matroska
Format version : Version 4 / Version 2
File size : 700 MiB
Duration : 1h 45mn
Overall bit rate : 923 Kbps
Movie name : Tera Surroor (2016) - 1CD - DVD-Rip - Hindi - x264 - MP3 - Mafiaking - M2Tv
Encoded date : UTC 2016-04-29 20:12:38
Writing application : mkvmerge v7.9.0 ('Birds') 64bit
Writing library : libebml v1.3.1 + libmatroska v1.4.2

Video
ID : 1
Format : AVC
Format/Info : Advanced Video Codec
Format profile : [email protected]
Format settings, CABAC : Yes
Format settings, ReFrames : 4 frames
Codec ID : V_MPEG4/ISO/AVC
Duration : 1h 45mn
Bit rate : 825 Kbps
Width : 640 pixels
Height : 272 pixels
Display aspect ratio : 2.35:1
Frame rate mode : Constant
Frame rate : 29.970 fps
Color space : YUV
Chroma subsampling : 4:2:0
Bit depth : 8 bits
Scan type : Progressive
Bits/(Pixel*Frame) : 0.158
Stream size : 613 MiB (88%)
Title : Mafiaking
Language : Hindi
Default : Yes
Forced : No

Audio
ID : 2
Format : MPEG Audio
Format version : Version 1
Format profile : Layer 3
Mode : Joint stereo
Mode extension : MS Stereo
Codec ID : A_MPEG/L3
Codec ID/Hint : MP3
Duration : 1h 45mn
Bit rate mode : Constant
Bit rate : 96.0 Kbps
Channel(s) : 2 channels
Sampling rate : 32.0 KHz
Compression mode : Lossy
Stream size : 72.8 MiB (10%)
Title : Mafiaking
Writing library : LAME3.99r
Language : Hindi
Default : Yes
Forced : No
LETWATACH
*
VODLOCKER
*
USERSFILES
*
*
*
*

Director

No links available
No downloads available

Genres

Related movies

Watch Dragon ball super